[Login] or [Signup]


Warning! Use a VPN When Downloading Torrents!
Your IP Address is .   Location is
Your Internet Provider is tracking your torrent activity!  Hide your IP ADDRESS with a VPN!
We strongly recommend using ExpressVPN to anonymize your torrenting. 30 Day Money Back Guarantee!
Try it Now!
First Cams

Xvid/x264



Non-English

Site Friends
      ETTV

      WorldWide Torrents

      Free Tutorials

      Aiosearch


Loading...

The Gifted S02E12 hoMe 1080p AMZN Webrip x265 AAC 5.1 D0ct0rLew[SEV]


Download torrent:    
Info Hash:  700469f4e9b7a5ea624e75f8d04ee64023c17ea3
Category:  TV  > HEVC/x265
Torrent language:  English  
Seeds | Leech:  110 | 45
Complete:   478
Health:   
Total Size:  1.32 GB
Added By:        SEV
Date Added:  17-01-2019 06:57:am | Last Edit:  27-01-2019 02:01:am

IMDB
The Gifted
The Gifted Released 02 Oct 2017

Genre Action, Drama, Fantasy, Sci-Fi

Director N/A

Writer Matt Nix

Actors Stephen Moyer, Amy Acker, Sean Teale, Natalie Alyn Lind

Plot In a world where mutated humans are treated with distrust and fear, an institute for mutants battles to achieve peaceful co-existence with humanity.

Link https://www.imdb.com/title/tt4396630/

Last Updated 25-04-2019 09:30:33
7.5

Votes 26,306

Un système d'onglets en javascript
Description Trackers Files Comments Download





Media Information
Unique ID                                : 4578086753324884256806332303606427050 (0x371B51A91082DF18B5DF34D0FE22DAA)
Complete name                            : The Gifted S02E12 hoMe 1080p AMZN Webrip x265 AAC 5.1 D0ct0rLew[SEV].mkv
Format                                   : Matroska
Format version                           : Version 4
File size                                : 1.32 GiB
Duration                                 : 44 min 40 s
Overall bit rate                         : 4 235 kb/s
Encoded date                             : UTC 2019-01-17 03:54:44
Writing application                      : mkvmerge v29.0.0 ('Like It Or Not') 64-bit
Writing library                          : libebml v1.3.6 + libmatroska v1.4.9

Video
ID                                       : 2
Format                                   : HEVC
Format/Info                              : High Efficiency Video Coding
Format profile                           : Main [email protected]@Main
Codec ID                                 : V_MPEGH/ISO/HEVC
Duration                                 : 44 min 40 s
Bit rate                                 : 3 785 kb/s
Width                                    : 1 920 pixels
Height                                   : 1 080 pixels
Display aspect ratio                     : 16:9
Frame rate mode                          : Constant
Frame rate                               : 23.976 (24000/1001) FPS
Color space                              : YUV
Chroma subsampling                       : 4:2:0
Bit depth                                : 10 bits
Bits/(Pixel*Frame)                       : 0.076
Stream size                              : 1.18 GiB (89%)
Writing library                          : x265 2.9+8-27d8424c799d:[Windows][MSVC 1915][64 bit] 10bit
Encoding settings                        : cpuid=1111039 / frame-threads=3 / numa-pools=8 / wpp / no-pmode / no-pme / no-psnr / no-ssim / log-level=2 / input-csp=1 / input-res=1920x1080 / interlace=0 / total-frames=64267 / level-idc=0 / high-tier=1 / uhd-bd=0 / ref=4 / no-allow-non-conformance / no-repeat-headers / annexb / no-aud / no-hrd / info / hash=0 / no-temporal-layers / open-gop / min-keyint=23 / keyint=250 / gop-lookahead=0 / bframes=8 / b-adapt=2 / b-pyramid / bframe-bias=0 / rc-lookahead=90 / lookahead-slices=4 / scenecut=40 / radl=0 / no-intra-refresh / ctu=64 / min-cu-size=8 / no-rect / no-amp / max-tu-size=32 / tu-inter-depth=1 / tu-intra-depth=1 / limit-tu=0 / rdoq-level=2 / dynamic-rd=0.00 / no-ssim-rd / signhide / no-tskip / nr-intra=0 / nr-inter=0 / no-constrained-intra / no-strong-intra-smoothing / max-merge=3 / limit-refs=3 / limit-modes / me=3 / subme=7 / merange=92 / temporal-mvp / weightp / no-weightb / no-analyze-src-pics / deblock=0:0 / sao / no-sao-non-deblock / rd=4 / no-early-skip / rskip / no-fast-intra / no-tskip-fast / no-cu-lossless / no-b-intra / no-splitrd-skip / rdpenalty=0 / psy-rd=1.10 / psy-rdoq=1.00 / no-rd-refine / no-lossless / cbqpoffs=0 / crqpoffs=0 / rc=crf / crf=20.0 / qcomp=0.57 / qpstep=4 / stats-write=0 / stats-read=0 / ipratio=1.40 / pbratio=1.30 / aq-mode=3 / aq-strength=1.00 / cutree / zone-count=0 / no-strict-cbr / qg-size=32 / no-rc-grain / qpmax=69 / qpmin=0 / no-const-vbv / sar=0 / overscan=0 / videoformat=5 / range=0 / colorprim=2 / transfer=2 / colormatrix=2 / chromaloc=0 / display-window=0 / max-cll=0,0 / min-luma=0 / max-luma=1023 / log2-max-poc-lsb=8 / vui-timing-info / vui-hrd-info / slices=1 / no-opt-qp-pps / no-opt-ref-list-length-pps / no-multi-pass-opt-rps / scenecut-bias=0.05 / no-opt-cu-delta-qp / no-aq-motion / no-hdr / no-hdr-opt / no-dhdr10-opt / no-idr-recovery-sei / analysis-reuse-level=5 / scale-factor=0 / refine-intra=0 / refine-inter=0 / refine-mv=0 / no-limit-sao / ctu-info=0 / no-lowpass-dct / refine-mv-type=0 / copy-pic=1 / max-ausize-factor=1.0 / no-dynamic-refine / no-single-sei
Language                                 : English
Default                                  : Yes
Forced                                   : No

Audio
ID                                       : 3
Format                                   : AAC LC
Format/Info                              : Advanced Audio Codec Low Complexity
Codec ID                                 : A_AAC-2
Duration                                 : 44 min 40 s
Bit rate                                 : 448 kb/s
Channel(s)                               : 6 channels
Channel layout                           : C L R Ls Rs LFE
Sampling rate                            : 48.0 kHz
Frame rate                               : 46.875 FPS (1024 SPF)
Compression mode                         : Lossy
Delay relative to video                  : 9 ms
Stream size                              : 143 MiB (11%)
Language                                 : English
Default                                  : Yes
Forced                                   : No

Text
ID                                       : 1
Format                                   : UTF-8
Codec ID                                 : S_TEXT/UTF8
Codec ID/Info                            : UTF-8 Plain Text
Duration                                 : 44 min 35 s
Bit rate                                 : 86 b/s
Count of elements                        : 808
Stream size                              : 28.3 KiB (0%)
Language                                 : English
Default                                  : Yes
Forced                                   : No


We have no issue with individuals posting or re-uploading our torrents on a platform we aren't on. However, if this is something you'd like to do, please do so in a 'as-is' format. We ask that you do not create a new torrent, include all descriptions you see above including the SEV logo, tags, notes and screenshots. If you'd like to become a permanent poster on a website we don't post to, feel free to get in contact with a Sublime Encoded Video member.


We are recruiting/training new members for SEV & seedbox providers as well as people to help out with subtitles.
As you already know, we deliver quality, so you know the standard.
If you're interested, feel free to contact any of the team members.


Similar Torrents
Type Name Size Added S L
x264 The.Gifted.S02E16.WEB.x264-TBS[ettv]
347.44 MB 2019-02-27 04:14:17 4962 1633
x264 The.Gifted.S02E09.WEB.x264-TBS[ettv]
354.28 MB 2018-12-05 03:18:56 3897 821
x264 The.Gifted.S02E11.WEB.x264-TBS[ettv]
352.68 MB 2019-01-09 04:21:39 3263 389
x264 The.Gifted.S02E01.WEB.x264-TBS[ettv]
351.42 MB 2018-09-26 02:22:13 3190 625
x264 The.Gifted.S02E13.WEB.x264-TBS[ettv]
346.84 MB 2019-01-23 04:07:41 3086 396
x264 The.Gifted.S02E15.REPACK.WEB.x264-TBS[ettv]
354.49 MB 2019-02-20 06:55:54 2968 935
x264 The.Gifted.S02E14.WEB.x264-TBS[ettv]
352.63 MB 2019-02-13 04:09:51 2654 854
x264 The.Gifted.S02E06.WEB.x264-TBS[ettv]
347.92 MB 2018-11-07 03:18:32 2142 469
x264 The.Gifted.S02E02.WEB.x264-TBS[ettv]
353.55 MB 2018-10-03 02:18:20 1690 246
x264 The.Gifted.S02E07.WEB.x264-TBS[ettv]
352.66 MB 2018-11-14 03:24:41 1638 166

Loading...


Trackers:
http://explodie.org:6969/announce

This Torrent also has backup trackers
URLSeedersLeechersCompleted
http://explodie.org:6969/announce000
http://tracker1.itzmx.com:8080/announce000
http://open.acgtracker.com:1096/announce000
http://tracker1.wasabii.com.tw:6969/announce000
http://tracker.mg64.net:6881/announce000
http://pubt.net:2710/announce000
http://mgtracker.org:2710/announce000
http://149.5.241.17:6969/announce000
http://0d.kebhana.mx:443/announce000
https://open.acgnxtracker.com:443/announce000
http://p4p.arenabg.com:1337/announce000
http://tracker.city9x.com:2710/announce000
https://linetorrent.xyz:443/announce000

The Gifted S02E12 hoMe 1080p AMZN Webrip x265 AAC 5.1 D0ct0rLew[SEV]
Files
The Gifted S02E12 hoMe 1080p AMZN Webrip x265 AAC 5.1 D0ct0rLew[SEV].mkv (1.32 GB)


Comments:
No comments still posted
Loading...
Powered by TT | Page Generated In 0.624510 secs.
| RSS Feed | Feed Info