[Login] or [Signup]


Warning! Use a VPN When Downloading Torrents!
Your IP Address is .   Location is
Your Internet Provider is tracking your torrent activity!  Hide your IP ADDRESS with a VPN!
We strongly recommend using ExpressVPN to anonymize your torrenting. 30 Day Money Back Guarantee!
Try it Now!
First Cams

Xvid/x264



Non-English

Site Friends
      ETTV

      WorldWide Torrents

      Free Tutorials

      Aiosearch


Loading...

Baazaar (2018) Hindi HDRip - 720p -x264 -DD5.1 (224Kbps) -1.4GB -ESub [MOVCR]


Complete Name :Baazaar (2018) Hindi HDRip - 720p -x264 -DD5.1 (224Kbps) -1.4GB -ESub [MOVCR]
Download torrent:    Baazaar (2018) Hindi HDRip - 720p -x264 -DD5.1 (224Kbps) -1.4GB -ESub [MOVCR].torrent
Info Hash:1dbc6b2156d251a5dd6a7017d6e8e4cb813b1420
Category:Movies  > h.264/x264
Torrent language:Hindi  
Seeds | Leech:706 | 1,047
Complete: 794
Health:
Total Size:1.38 GB
Added By:      Tamilgun
Date Added:12-01-2019 06:52:pm | Last Edit:  27-01-2019 02:01:am

 

IMDB
Baazaar
Baazaar Released 26 Oct 2018

Genre Crime, Drama, Thriller

Director Gauravv K. Chawla

Writer Aseem Arora (dialogue), Aseem Arora (screenwriter), Parveez Sheikh (screenwriter), Parveez Sheikh (story)

Actors Radhika Apte, Saif Ali Khan, Chitrangda Singh, Denzil Smith

Plot Baazaar is a 2018 film starring Saif Ali Khan, Chitrangada Singh and Radhika Apte. With a plot revolving around stock-trading, the film, according to director Gauravv K. Chawla's is about making it in the big bad world of Mumbai.

Link http://www.imdb.com/title/tt6514196

Last Updated 22-03-2019 04:40:55
6.9

Votes 1,141

Main Technical Comments



Video
ID                          : 1
Format                      : AVC
Format/Info                 : Advanced Video Codec
Format profile              : [email protected]
Format settings             : CABAC / 4 Ref Frames
Format settings, CABAC      : Yes
Format settings, ReFrames   : 4 frames
Codec ID                    : V_MPEG4/ISO/AVC
Duration                    : 2 h 16 min
Bit rate                    : 1 209 kb/s
Width                       : 1 280 pixels
Height                      : 544 pixels
Display aspect ratio        : 2.35:1
Frame rate mode             : Constant
Frame rate                  : 24.000 FPS
Color space                 : YUV
Audio
ID                          : 2
Format                      : AC-3
Format/Info                 : Audio Coding 3
Codec ID                    : A_AC3
Duration                    : 2 h 16 min
Bit rate mode               : Constant
Bit rate                    : 224 kb/s
Channel(s)                  : 6 channels
Channel positions           : Front: L C R, Side: L R, LFE
Sampling rate               : 48.0 kHz
Frame rate                  : 31.250 FPS (1536 SPF)
Bit depth                   : 16 bits
Compression mode            : Lossy
Stream size                 : 219 MiB (16%)
Title                       :
Language                    : Hindi
Service kind                : Complete Main
Default                     : Yes
Forced                      : Yes

Text
ID                          : 3
Format                      : UTF-8
Codec ID                    : S_TEXT/UTF8
Codec ID/Info               : UTF-8 Plain Text
Duration                    : 2 h 11 min
Bit rate                    : 66 b/s
Count of elements           : 1563
Stream size                 : 64.6 KiB (0%)
Title                       :
Language                    : English
Default                     : Yes
Forced                      : Yes


........................................................................


Loading...


Trackers:
udp://tracker.coppersurfer.tk:6969/announce

Baazaar (2018) Hindi HDRip - 720p -x264 -DD5.1 (224Kbps) -1.4GB -ESub [MOVCR]
Files
(www.Movcr.cc). -Baazaar (2018) Hindi HDRip - 720p -x264 -DD5.1 (224Kbps) -1.4GB -ESub [MOVCR].mkv --- 1.38 GB


Similar Torrents
Type Name Size Added S L
h.264/x264 Baazaar (2018) Full Movie Hindi 480p pDVDRip.mkv
698.29 MB 2018-10-28 01:08:49 1846 1362
h.264/x264 Baazaar (2018) [ Bolly4u.trade] Pre DVDRip Hindi x...
737.49 MB 2018-10-28 07:10:30 1531 1090
Cam/TS Baazaar (2018) Hindi 720p Pre-DVDRip x264 AAC - Do...
1.04 GB 2018-10-27 03:25:02 1508 779
HD Baazaar 2018 **HDRip x264 720p ESub 950MiB ~KoMmu
982.34 MB 2019-01-13 14:24:52 1027 902
Non-English Baazaar 2018 Hindi 720p PRE DVDRip x264 [MW]
1.37 GB 2018-10-27 12:36:13 892 296
Non-English Baazaar 2018 WebRip Hindi 720p x264 AAC 5.1 ESub -...
1.19 GB 2019-01-13 15:20:36 870 1346
HD Baazaar (2018) Hindi 720p HDRip x264 AAC MSubs - D...
1.05 GB 2019-01-13 00:35:54 534 406
HD Baazaar.2018.720p.Hindi.Proper HDRip.x264.AC3
1.04 GB 2019-01-14 06:39:42 477 321
Non-English Baazaar 2018 Hindi 720p WEB-DL x264 ESub [MW]
1.09 GB 2019-02-10 11:36:02 401 139
Non-English Baazaar (2018) Hindi Desi pDVDRip x264 AAC Bollywo...
728.90 MB 2018-10-27 06:39:14 317 92

Comments:
No comments still posted
Loading...
Powered by TT | Page Generated In 0.262050 secs.
| RSS Feed | Feed Info