[Login] or [Signup]


Warning! Use a VPN When Downloading Torrents!
Your IP Address is .   Location is
Your Internet Provider is tracking your torrent activity!  Hide your IP ADDRESS with a VPN!
We strongly recommend using ExpressVPN to anonymize your torrenting. 30 Day Money Back Guarantee!
Try it Now!
First Cams

Xvid/x264



Non-English

Site Friends
      ETTV

      WorldWide Torrents

      Free Tutorials

      Aiosearch


Loading...

Sona Spa (2013) Hindi 720p WEB-DL x264 AC3-Sun George (Requested)


Complete Name :Sona Spa (2013) Hindi 720p WEB-DL x264 AC3-Sun George (Requested)
Download torrent:    Sona Spa (2013) Hindi 720p WEB-DL x264 AC3-Sun George (Requested).torrent
Info Hash:526ded12008a7cc8d6568d3018b265524a87ae8a
Category:Movies  > HD
Torrent language:Hindi  
Seeds | Leech:317 | 446
Complete: 380
Health:
Total Size:1.25 GB
Added By:      sungeorge
Date Added:12-01-2019 11:25:am | Last Edit:  27-01-2019 02:01:am

 

IMDB
Sona Spa
Sona Spa Released 22 Mar 2013

Genre Drama, Mystery, Thriller

Director Makrand Deshpande

Writer Makrand Deshpande

Actors Akkash Basnet, Nivedita Bhattacharya, Devyani, Shailesh Hejmady

Plot The world is deprived of sleep. In Sona Spa you can buy sleep for yourself. Here Girls (Sleep Workers) sleep for you, not with you. However they can also inhabit the kingdom of their ...

Link http://www.imdb.com/title/tt2609468

Last Updated 22-03-2019 03:53:14
3.7

Votes 181

Main Technical Comments
Sona Spa (2013) Hindi 720p WEB-DL x264 AC3-Sun George (Requested)





https://www.imdb.com/title/tt2609468/








For Direct Links Visit: http://FilmMaza.Org













===================================================================

Source : Hon3yhd (Thanks)

General
Format                                   : Matroska
Format version                           : Version 4 / Version 2
File size                                : 1.23 GiB
Duration                                 : 1 h 42 min
Overall bit rate                         : 1 716 kb/s
Movie name : Sona Spa (2013) Hindi 720p WEB-DL x264 AC3-Sun George (Requested)

===================================================================

Video
ID                                       : 1
Format                                   : AVC
Format/Info                              : Advanced Video Codec
Format profile                           : [email protected]
Format settings                          : CABAC / 4 Ref Frames
Format settings, CABAC                   : Yes
Format settings, RefFrames               : 4 frames
Codec ID                                 : V_MPEG4/ISO/AVC
Duration                                 : 1 h 42 min
Bit rate                                 : 1 500 kb/s
Width                                    : 1 280 pixels
Height                                   : 544 pixels
Display aspect ratio                     : 2.35:1
Frame rate mode                          : Variable
Frame rate                               : 24.000 FPS
Color space                              : YUV
Chroma subsampling                       : 4:2:0
Bit depth                                : 8 bits
Scan type                                : Progressive
Bits/(Pixel*Frame)                       : 0.090
Stream size                              : 1.06 GiB (87%)
Title                                    : Sun George

===================================================================

Audio
ID                                       : 2
Format                                   : AC-3
Format/Info                              : Audio Coding 3
Codec ID                                 : A_AC3
Duration                                 : 1 h 42 min
Bit rate mode                            : Constant
Bit rate                                 : 224 kb/s
Channel(s)                               : 2 channels
Channel positions                        : Front: L R
Sampling rate                            : 44.1 kHz
Frame rate                               : 28.711 FPS (1536 SPF)
Bit depth                                : 16 bits
Compression mode                         : Lossy
Delay relative to video                  : 10 ms
Stream size                              : 164 MiB (13%)
Title                                    : Sun George
Language                                 : Hindi
Service kind                             : Complete Main
Default                                  : Yes
Forced                                   : No













........................................................................


Loading...


Trackers:
udp://tracker.pirateparty.gr:6969/announce

This Torrent also has backup trackers
URLSeedersLeechersCompleted
https://tracker.fastdownload.xyz:443/announce000
https://seeders-paradise.org:443/announce000
http://share.camoe.cn:8080/announce000

Sona Spa (2013) Hindi 720p WEB-DL x264 AC3-Sun George (Requested)
Files
FilmMaza.Org – Download Movies For Free.url --- 121.00 B
Sample Sona Spa (2013) Hindi 720p WEB-DL x264 AC3-Sun George (Requested).mkv --- 25.15 MB
Sona Spa (2013) Hindi 720p WEB-DL x264 AC3-Sun George (Requested).mkv --- 1.23 GB


Comments:
No comments still posted
Loading...
Powered by TT | Page Generated In 0.661152 secs.
| RSS Feed | Feed Info