[Login] or [Signup]


Warning! Use a VPN When Downloading Torrents!
Your IP Address is .   Location is
Your Internet Provider is tracking your torrent activity!  Hide your IP ADDRESS with a VPN!
We strongly recommend using ExpressVPN to anonymize your torrenting. 30 Day Money Back Guarantee!
Try it Now!
First Cams

Xvid/x264



Non-English

Site Friends
      ETTV

      WorldWide Torrents

      Free Tutorials

      Aiosearch


Loading...

Halloween (2018) x 1616 (2160p) HDR 5.1 x265 10bit Phun Psyz


Complete Name :Halloween (2018) x 1616 (2160p) HDR 5.1 x265 10bit Phun Psyz
Download torrent:    Halloween (2018) x 1616 (2160p) HDR 5.1 x265 10bit Phun Psyz.torrent
Info Hash:f555249a29df3698b5598b7efc2ca74c87e7559d
Category:Movies  > 4K
Torrent language:English  
Seeds | Leech:505 | 104
Complete: 1,360
Health:
Total Size:2.71 GB
Added By:      phunpsyz
Date Added:11-01-2019 10:38:pm | Last Edit:  27-01-2019 02:01:am

 

IMDB
Halloween
Halloween Released 19 Oct 2018

Genre Horror, Thriller

Director David Gordon Green

Writer John Carpenter (based on characters created by), Debra Hill (based on characters created by), Jeff Fradley, Danny McBride, David Gordon Green

Actors Jamie Lee Curtis, Judy Greer, Andi Matichak, James Jude Courtney

Plot Laurie Strode confronts her long-time foe Michael Myers, the masked figure who has haunted her since she narrowly escaped his killing spree on Halloween night four decades ago.

Link http://www.imdb.com/title/tt1502407

Last Updated 22-03-2019 04:01:46
6.7

Votes 79,287

Main Technical Comments
www.imdb.com/title/tt1502407/

Laurie Strode confronts her long-time foe Michael Myers, the masked figure who has haunted her since she narrowly escaped his killing spree on Halloween night four decades ago.

Source: FGT 4K HDR Remux







Format                      : Matroska
Format version              : Version 4 / Version 2
File size                   : 2.71 GiB
Duration                    : 1 h 45 min
Overall bit rate            : 3 669 kb/s

Video
ID                          : 1
Format                      : HEVC
Format/Info                 : High Efficiency Video Coding
Format profile              : Main [email protected]@High
Codec ID                    : V_MPEGH/ISO/HEVC
Duration                    : 1 h 45 min
Bit rate                    : 3 276 kb/s
Width                       : 3 840 pixels
Height                      : 1 616 pixels
Display aspect ratio        : 2.40:1
Frame rate mode             : Constant
Frame rate                  : 23.976 (24000/1001) FPS
Color space                 : YUV
Chroma subsampling          : 4:2:0
Bit depth                   : 10 bits
Bits/(Pixel*Frame)          : 0.022
Stream size                 : 2.42 GiB (89%)

Audio
ID                          : 2
Format                      : AC-3
Format/Info                 : Audio Coding 3
Commercial name             : Dolby Digital
Codec ID                    : A_AC3
Duration                    : 1 h 45 min
Bit rate mode               : Constant
Bit rate                    : 320 kb/s
Channel(s)                  : 6 channels
Channel layout              : L R C LFE Ls Rs
Sampling rate               : 48.0 kHz
Frame rate                  : 31.250 FPS (1536 SPF)
Bit depth                   : 16 bits
Compression mode            : Lossy
Stream size                 : 242 MiB (9%)
Title                       : Surround
Language                    : English

Text
Language                    : English
Language                    : English
Language                    : Spanish
Language                    : French
Language                    : Spanish
Language                    : French
Default                     : No
Forced                      : No
........................................................................


Loading...


Trackers:
udp://tracker.coppersurfer.tk:6969/announce

This Torrent also has backup trackers
URLSeedersLeechersCompleted
http://explodie.org:6969/announce000
http://open.acgtracker.com:1096/announce000

Halloween (2018) x 1616 (2160p) HDR 5.1 x265 10bit Phun Psyz
Files
Halloween (2018) x 1616 (2160p) HDR 5.1 x265 10bit Phun Psyz.mkv --- 2.71 GB


Similar Torrents
Type Name Size Added S L
Cam/TS Halloween 2018 720p HDCAM ENG-1XBET
2.45 GB 2018-10-20 11:48:05 5147 2090
h.264/x264 Halloween.2018.HC.HDRip.XviD.AC3-EVO[EtMovies]
1.40 GB 2018-11-29 09:42:51 4730 1785
Divx/Xvid Halloween.2018.HDRip.XviD.AC3-EVO
1.39 GB 2018-12-19 23:29:01 3674 801
h.264/x264 Goosebumps.Haunted Halloween.2018.HDRip.XviD.AC3-E...
1.31 GB 2018-12-09 22:36:00 3558 2843
Cam/TS Goosebumps 2 Haunted Halloween 2018 HDTS.XViD.AC3-...
1.17 GB 2018-10-16 11:20:18 3287 1627
Video MGT-066 Street Global Nampa vol. 41 Halloween Nam...
2.64 GB 2019-02-18 09:57:03 2717 1014
HD Video HD MGT-066 Street Global Nampa vol. 41 Halloween ...
10.25 GB 2019-02-17 17:17:20 2674 3882
HD Halloween.2018.V2.1080p.WEB-DL.H264.AC3-EVO[EtHD]
3.50 GB 2018-12-19 23:27:58 2400 791
Divx/Xvid Goosebumps.Haunted Halloween.2018.HDRip.XviD.AC3-E...
1.31 GB 2018-12-09 23:01:17 2365 1126
HD Halloween.2018.HC.720p.HDRip.x264.AAC-ETRG
942.42 MB 2018-11-29 11:14:54 2013 2208

Comments:
No comments still posted
Loading...
Powered by TT | Page Generated In 0.286097 secs.
| RSS Feed | Feed Info