Warning! Use a VPN When Downloading Torrents!
Your IP Address is .   Location is
Your Internet Provider is tracking your torrent activity!  Hide your IP ADDRESS with a VPN!
We strongly recommend using Trust.Zone VPN to anonymize your torrenting. It's FREE!
Get VPN Now for FREE!
First Cams

Xvid/x264



Non-English

Site Friends
      ETTV

      WorldWide Torrents

      Free Tutorials

      Aiosearch


Loading...

60 Vayadu Maaniram 2018 x264 720p HD Esub Tamil GOPISAHI


Download torrent:      
Info Hash:  a57fe5ac933bcdc5c760c8baed636fec6c63d8e1
Category:  Movies  > HD
Torrent language:  Other  
Seeds | Leech:  81 | 83
Complete:   114
Health:   
Total Size:  753.33 MB
Added By:        GOPISAHI
Date Added:  11-01-2019 05:51:am | Last Edit:  27-01-2019 02:01:am

IMDB
60 Vayadu Maaniram
60 Vayadu Maaniram Released 31 Aug 2018

Genre N/A

Director Radha Mohan

Writer Radha Mohan, Hemanth M. Rao, Viji

Actors Prakash Raj, Vikram Prabhu, Samuthirakani, Indhuja

Plot An ambitious son sets out to find his missing father, who suffers from memory loss, with the help of two people.

Link http://www.imdb.com/title/tt8963248

Last Updated 17-06-2019 09:42:38
6.9

Votes 84

Un système d'onglets en javascript
Description Trackers Files Comments Download
https://www.gopisahi.pw/

Format                         : Matroska
Format version                 : Version 4 / Version 2
File size                      : 753 MiB
Duration                       : 2 h 12 min
Overall bit rate               : 797 kb/s
Movie name                     : 60 Vayadu Maaniram 2018 GOPISAHI

Video
Format                         : AVC
Codec ID                       : V_MPEG4/ISO/AVC
Duration                       : 2 h 12 min
Bit rate                       : 699 kb/s
Width                          : 1 280 pixels
Height                         : 544 pixels
Display aspect ratio           : 2.35:1
Frame rate mode                : Constant
Frame rate                     : 29.970 (30000/1001) FPS
Color space                    : YUV
Chroma subsampling             : 4:2:0
Bit depth                      : 8 bits
Scan type                      : Progressive
Bits/(Pixel*Frame)             : 0.033
Stream size                    : 660 MiB (88%)
Title                          : GOPISAHI
Writing library                : x264 core 155 r2901 7d0ff22

Audio
Format                         : AAC
Duration                       : 2 h 12 min
Bit rate                       : 96.0 kb/s
Channel(s)                     : 2 channels
Channel positions              : Front: L R
Sampling rate                  : 48.0 kHz
Frame rate                     : 46.875 FPS (1024 SPF)
Compression mode               : Lossy
Delay relative to video        : -21 ms
Stream size                    : 90.6 MiB (12%)
Title                          : GOPISAHI
Language                       : Tamil

Text
Language                       : English




Loading...


Trackers:
udp://tracker.coppersurfer.tk:6969/announce

60 Vayadu Maaniram 2018 x264 720p HD Esub Tamil GOPISAHI
Files
60 Vayadu Maaniram 2018 x264 720p HD Esub Tamil GOPISAHI.mkv (753.33 MB)


Comments:
No comments still posted
Loading...
Powered by TT | Page Generated In 0.474575 secs.
| RSS Feed | Feed Info