[Login] or [Signup]


Warning! Use a VPN When Downloading Torrents!
Your IP Address is .   Location is
Your Internet Provider is tracking your torrent activity!  Hide your IP ADDRESS with a VPN!
We strongly recommend using Trust.Zone VPN to anonymize your torrenting. It's FREE!
Get VPN Now for FREE!
First Cams

Xvid/x264



Non-English

Loading...

Sigai 2019 x264 720p HD Tamil GOPISAHI


Complete Name :Sigai 2019 x264 720p HD Tamil GOPISAHI
Download torrent:    Sigai 2019 x264 720p HD Tamil GOPISAHI.torrent
Info Hash:69bb93eb316e1d3e6902468ba01dfaa8c24bfc09
Category:Movies  > HD
Torrent language:Other  
Seeds | Leech:85 | 202
Complete: 168
Health:
Total Size:541.94 MB
Downloaded:10 Times
Added By:      GOPISAHI
Date Added:11-01-2019 05:31:am | Last Edit:  13-01-2019 07:07:am

 

Main Technical Comments
https://www.gopisahi.pw/

Format                         : Matroska
Format version                 : Version 4 / Version 2
File size                      : 542 MiB
Duration                       : 1 h 35 min
Overall bit rate               : 797 kb/s
Movie name                     : Sigai 2019 GOPISAHI

Video
Format                         : AVC
Codec ID                       : V_MPEG4/ISO/AVC
Duration                       : 1 h 35 min
Bit rate                       : 699 kb/s
Width                          : 1 280 pixels
Height                         : 544 pixels
Display aspect ratio           : 2.35:1
Frame rate mode                : Constant
Frame rate                     : 25.000 FPS
Color space                    : YUV
Chroma subsampling             : 4:2:0
Bit depth                      : 8 bits
Scan type                      : Progressive
Bits/(Pixel*Frame)             : 0.040
Stream size                    : 475 MiB (88%)
Title                          : GOPISAHI
Writing library                : x264 core 155 r2901 7d0ff22

Audio
Format                         : AAC
Duration                       : 1 h 35 min
Bit rate                       : 96.0 kb/s
Channel(s)                     : 2 channels
Channel positions              : Front: L R
Sampling rate                  : 48.0 kHz
Frame rate                     : 46.875 FPS (1024 SPF)
Compression mode               : Lossy
Delay relative to video        : -21 ms
Stream size                    : 65.3 MiB (12%)
Title                          : GOPISAHI
Language                       : Tamil


........................................................................


Loading...


Trackers:
udp://tracker.coppersurfer.tk:6969/announce

Sigai 2019 x264 720p HD Tamil GOPISAHI
Files
Sigai 2019 x264 720p HD Tamil GOPISAHI.mkv --- 541.94 MB


Comments:
No comments still posted
Loading...
Powered by TT | Page Generated In 0.066954 secs.
| RSS Feed | Feed Info