[Login] or [Signup]


Warning! Use a VPN When Downloading Torrents!
Your IP Address is .   Location is
Your Internet Provider is tracking your torrent activity!  Hide your IP ADDRESS with a VPN!
We strongly recommend using Trust.Zone VPN to anonymize your torrenting. It's FREE!
Get VPN Now for FREE!
First Cams

Xvid/x264



Non-English

Loading...

How to Train Your Dragon (2010) x 1636 (2160p) HDR 5.1 x265 10bit Phun Psyz


Complete Name :How to Train Your Dragon (2010) x 1636 (2160p) HDR 5.1 x265 10bit Phun Psyz
Download torrent:    How to Train Your Dragon (2010) x 1636 (2160p) HDR 5.1 x265 10bit Phun Psyz.torrent
Info Hash:4592082596aff426be4505c4d3ed01d57ccbf68d
Category:Movies  > 4K
Torrent language:English  
Seeds | Leech:139 | 86
Complete: 456
Health:
Total Size:2.80 GB
Downloaded:13 Times
Added By:      phunpsyz
Date Added:11-01-2019 04:52:am | Last Edit:  13-01-2019 06:04:am

 

IMDB
How to Train Your Dragon
How to Train Your Dragon Released 26 Mar 2010

Genre Animation, Action, Adventure, Comedy, Family, Fantasy

Director Dean DeBlois, Chris Sanders

Writer William Davies (screenplay by), Dean DeBlois (screenplay by), Chris Sanders (screenplay by), Cressida Cowell (based on the book by)

Actors Jay Baruchel, Gerard Butler, Craig Ferguson, America Ferrera

Plot A hapless young Viking who aspires to hunt dragons becomes the unlikely friend of a young dragon himself, and learns there may be more to the creatures than he assumed.

Link http://www.imdb.com/title/tt0892769

Last Updated 22-01-2019 20:53:45
8.1

Votes 589,339

Main Technical Comments
www.imdb.com/title/tt0892769/

A hapless young Viking who aspires to hunt dragons becomes the unlikely friend of a young dragon himself, and learns there may be more to the creatures than he assumed.

Source: FGT 4K HDR Remux







Format                      : Matroska
Format version              : Version 4 / Version 2
File size                   : 2.80 GiB
Duration                    : 1 h 38 min
Overall bit rate            : 4 076 kb/s

Video
ID                          : 1
Format                      : HEVC
Format/Info                 : High Efficiency Video Coding
Format profile              : Main [email protected]@High
Codec ID                    : V_MPEGH/ISO/HEVC
Duration                    : 1 h 38 min
Bit rate                    : 3 675 kb/s
Width                       : 3 840 pixels
Height                      : 1 636 pixels
Display aspect ratio        : 2.35:1
Frame rate mode             : Constant
Frame rate                  : 23.976 (24000/1001) FPS
Color space                 : YUV
Chroma subsampling          : 4:2:0
Bit depth                   : 10 bits
Bits/(Pixel*Frame)          : 0.024
Stream size                 : 2.52 GiB (90%)
Writing library             : x265 2.6:[Windows][GCC 7.3.0][64 bit] 10bit

Audio
ID                          : 2
Format                      : AC-3
Format/Info                 : Audio Coding 3
Commercial name             : Dolby Digital
Codec ID                    : A_AC3
Duration                    : 1 h 38 min
Bit rate mode               : Constant
Bit rate                    : 320 kb/s
Channel(s)                  : 6 channels
Channel layout              : L R C LFE Ls Rs
Sampling rate               : 48.0 kHz
Frame rate                  : 31.250 FPS (1536 SPF)
Bit depth                   : 16 bits
Compression mode            : Lossy
Stream size                 : 225 MiB (8%)
Title                       : Surround
Language                    : English

Text
Language                    : English
Language                    : English
Language                    : Italian
Language                    : Spanish
Language                    : Portuguese
Language                    : Czech
Language                    : Hungarian
Language                    : Polish
Language                    : English
Language                    : Italian
Language                    : Spanish
Language                    : Portuguese
Language                    : Czech
Language                    : Hungarian
Default                     : No
Forced                      : No
........................................................................


Loading...


Trackers:
udp://tracker.coppersurfer.tk:6969/announce

This Torrent also has backup trackers
URLSeedersLeechersCompleted
http://explodie.org:6969/announce000
http://open.acgtracker.com:1096/announce000

How to Train Your Dragon (2010) x 1636 (2160p) HDR 5.1 x265 10bit Phun Psyz
Files
How to Train Your Dragon (2010) x 1636 (2160p) HDR 5.1 x265 10bit Phun Psyz.mkv --- 2.80 GB


Similar Torrents
Type Name Size Added S L
Cam/TS How to Train Your Dragon 3 2019 HDCAM XViD AC3-ETR...
1.17 GB 2019-01-14 00:13:01 3275 1959
Divx/Xvid How.to.Talk.to.Girls.at.Parties.2017.HDRip.XviD.AC...
1.38 GB 2018-05-23 11:19:03 2000 748
Cam/TS How to Train Your Dragon 3 2018 720p HDCAM.With.Sa...
1.49 GB 2019-01-14 07:31:02 1216 1069
Ebooks Hype - A Doctor's Guide to Medical Myths, Exaggera...
1.64 MB 2018-05-14 04:44:51 813 7
Cam/TS How to Train Your Dragon 3 2019 HDCAM.XVID.AC3.[MO...
885.72 MB 2019-01-14 05:13:27 799 496
Ebooks Start and Run a Business from Home - How to Turn Y...
1.22 MB 2018-12-26 19:17:44 764 81
HD How.to.Talk.to.Girls.at.Parties.2017.1080p.WEB-DL....
4.01 GB 2018-05-23 17:29:29 706 359
Ebooks How to Tie a Scarf - 33 Styles By Potter Gift
20.78 MB 2018-08-19 05:31:50 533 23
Ebooks Start and Run A Business From Home - How to turn y...
1.22 MB 2018-07-07 02:28:16 525 17
Ebooks How to Think About Algorithms By Jeff Edmonds
6.04 MB 2018-12-28 19:56:18 520 47

Comments:
No comments still posted
Loading...
Powered by TT | Page Generated In 0.764419 secs.
| RSS Feed | Feed Info