Warning! Use a VPN When Downloading Torrents!
Your IP Address is .   Location is
Your Internet Provider is tracking your torrent activity!  Hide your IP ADDRESS with a VPN!
We strongly recommend using ExpressVPN to anonymize your torrenting. 30 Day Money Back Guarantee!
Try it Now!
First Cams

Xvid/x264



Non-English

Site Friends
      ETTV

      WorldWide Torrents

      Free Tutorials

      Aiosearch


Loading...

Generation Aami (2018) 720p WEB-DL ACC x264 (Cineweb)


Download torrent:    
Info Hash:  7c0de221541667fbfec3b8822dbb222b9555f3f2
Category:  Movies  > Non-English
Torrent language:  English  
Seeds | Leech:  22 | 8
Complete:   29
Health:   
Total Size:  1.33 GB
Added By:        ittorrent
Date Added:  07-01-2019 04:27:am | Last Edit:  27-01-2019 02:01:am

Un système d'onglets en javascript
Description Trackers Files Comments Download
Generation Aami (2018) 720p WEB-DL ACC x264 (Cineweb.net)

For Direct Links Download & Google Drive Download Link Visit Cineweb.net


Cineweb.net


********************************

[center]Generation Aami (2018) 720p WEB-DL ACC x264 (Cineweb.net)


********************************[/center]






General
Complete name                            : Generation Aami (2018) 720p WEB-DL ACC x264[CineWeb.Net].m4v
Format                                   : MPEG-4
Format profile                           : Base Media / Version 2
Codec ID                                 : mp42 (isom/iso2/avc1/mp41)
File size                                : 1.33 GiB
Duration                                 : 1 h 59 min
Overall bit rate mode                    : Variable
Overall bit rate                         : 1 594 kb/s
Encoded date                             : UTC 2019-01-06 20:32:24
Tagged date                              : UTC 2019-01-06 20:32:24
Writing application                      : HandBrake 1.1.2 2018090500

Video
ID                                       : 1
Format                                   : AVC
Format/Info                              : Advanced Video Codec
Format profile                           : [email protected]
Format settings, CABAC                   : Yes
Format settings, ReFrames                : 4 frames
Codec ID                                 : avc1
Codec ID/Info                            : Advanced Video Coding
Duration                                 : 1 h 59 min
Bit rate                                 : 1 400 kb/s
Width                                    : 1 280 pixels
Height                                   : 544 pixels
Display aspect ratio                     : 16:9
Original display aspect ratio            : 16:9
Frame rate mode                          : Constant
Frame rate                               : 24.000 FPS
Color space                              : YUV
Chroma subsampling                       : 4:2:0
Bit depth                                : 8 bits
Scan type                                : Progressive
Bits/(Pixel*Frame)                       : 0.084
Stream size                              : 1.16 GiB (88%)
Writing library                          : x264 core 155 r2901 7d0ff22
Encoding settings                        : cabac=1 / ref=2 / deblock=1:0:0 / analyse=0x1:0x111 / me=hex / subme=6 / psy=1 / psy_rd=1.00:0.00 / mixed_ref=1 / me_range=16 / chroma_me=1 / trellis=1 / 8x8dct=0 / cqm=0 / deadzone=21,11 / fast_pskip=1 / chroma_qp_offset=-2 / threads=9 / lookahead_threads=1 / sliced_threads=0 / nr=0 / decimate=1 / interlaced=0 / bluray_compat=0 / constrained_intra=0 / bframes=3 / b_pyramid=2 / b_adapt=1 / b_bias=0 / direct=1 / weightb=1 / open_gop=0 / weightp=1 / keyint=240 / keyint_min=24 / scenecut=40 / intra_refresh=0 / rc_lookahead=30 / rc=abr / mbtree=1 / bitrate=1400 / ratetol=1.0 / qcomp=0.60 / qpmin=0 / qpmax=69 / qpstep=4 / vbv_maxrate=20000 / vbv_bufsize=25000 / nal_hrd=none / filler=0 / ip_ratio=1.40 / aq=1:1.00
Encoded date                             : UTC 2019-01-06 20:32:24
Tagged date                              : UTC 2019-01-06 20:32:24
Color range                              : Limited
Color primaries                          : BT.709
Transfer characteristics                 : BT.709
Matrix coefficients                      : BT.709

Audio
ID                                       : 2
Format                                   : AAC
Format/Info                              : Advanced Audio Codec
Format profile                           : LC
Codec ID                                 : 40
Duration                                 : 1 h 59 min
Bit rate mode                            : Variable
Bit rate                                 : 192 kb/s
Channel(s)                               : 2 channels
Channel positions                        : Front: L R
Sampling rate                            : 48.0 kHz
Frame rate                               : 46.875 FPS (1024 spf)
Compression mode                         : Lossy
Stream size                              : 164 MiB (12%)
Title                                    : Stereo / Stereo
Language                                 : English
Default                                  : Yes
Alternate group                          : 1
Encoded date                             : UTC 2019-01-06 20:32:24
Tagged date                              : UTC 2019-01-06 20:32:24




Similar Torrents
Type Name Size Added S L
HD Generation Gap (2019) HOT Hindi Season 1 Complete ...
1.09 GB 2019-01-08 13:03:54 1865 1661
Video FC2-PPV-1083591 JD3 Regenerative in our Priya Ne...
2.29 GB 2019-05-11 17:17:46 1503 1128
Video FC2-PPV-1057187 original personal photographyUniv...
1.11 GB 2019-04-01 16:28:34 1325 404
HD Video HD IPX-263 FIRST IMPRESSION 132 fresh NEW GENERAT...
4.27 GB 2019-02-08 10:26:15 1233 2197
HD Video HD IPX-277 new generation Half-Girl shame him. I ...
3.99 GB 2019-03-10 09:41:33 1069 3756
HD Generation Gap (2019) HOT Hindi Season 1 Complete ...
355.01 MB 2019-01-08 13:12:48 1066 498
Video FC2-PPV-1053325 original personal photographyUniv...
5.45 GB 2019-03-21 22:54:01 939 1439
Video MDB-881 training generational woman was living w...
1.94 GB 2019-03-21 14:10:09 808 1145
Video NNPJ-297 all 10 generations But 30kg units of the ...
1.91 GB 2019-03-26 13:06:47 738 860
PC-ISO Generation Zero-CODEX
23.32 GB 2019-03-28 16:55:27 664 592

Loading...


Trackers:
udp://tracker.coppersurfer.tk:6969/announce

Generation Aami (2018) 720p WEB-DL ACC x264 (Cineweb)
Files
Generation Aami (2018) 720p WEB-DL ACC x264[CineWeb.Net].m4v (1.33 GB)


Comments:
No comments still posted
Loading...
Powered by TT | Page Generated In 0.279322 secs.
| RSS Feed | Feed Info