[Login] or [Signup]


Warning! Use a VPN When Downloading Torrents!
Your IP Address is .   Location is
Your Internet Provider is tracking your torrent activity!  Hide your IP ADDRESS with a VPN!
We strongly recommend using Trust.Zone VPN to anonymize your torrenting. It's FREE!
Get VPN Now for FREE!
First Cams

Xvid/x264



Non-English

Loading...

Bad Times At The El Royale (2018) 720p Bluray x264 {Hindi~Eng Org BD5.1)1.5GB[MOVCR]


Complete Name :Bad Times At The El Royale (2018) 720p Bluray x264 {Hindi~Eng Org BD5.1)1.5GB[MOVCR]
Download torrent:    Bad Times At The El Royale (2018) 720p Bluray x264 {Hindi~Eng Org BD5.1)1.5GB[MOVCR].torrent
Info Hash:7bfc5d7297288b146fed6f3e9dcb19e6568b2323
Category:Movies  > Non-English
Torrent language:Hindi  
Seeds | Leech:304 | 176
Complete: 1,680
Health:
Total Size:1.65 GB
Downloaded:11 Times
Added By:      Tamilgun
Date Added:05-01-2019 04:21:pm | Last Edit:  13-01-2019 02:01:am

 

IMDB
Bad Times at the El Royale
Bad Times at the El Royale Released 12 Oct 2018

Genre Crime, Drama, Mystery, Thriller

Director Drew Goddard

Writer Drew Goddard

Actors Jeff Bridges, Cynthia Erivo, Dakota Johnson, Jon Hamm

Plot Circa 1969, several strangers, most with a secret to bury, meet by chance at Lake Tahoe's El Royale, a rundown hotel with a dark past. Over the course of one night, everyone will show their true colors - before everything goes to hell.

Link http://www.imdb.com/title/tt6628394

Last Updated 21-01-2019 03:54:57
7.3

Votes 33,865

Main Technical Comments



Format                                   : Matroska
Format version                           : Version 4 / Version 2
File size                                : 1.65 GiB
Duration                                 : 2 h 21 min
Overall bit rate                         : 1 664 kb/s
Width                                    : 1 280 pixels
Height                                   : 536 pixels
Display aspect ratio                     : 2.40:1
Frame rate mode                          : Constant
Frame rate                               : 23.976 (24000/1001) FPS

Language                                 : English
Default                                  : Yes


Audio #1
Format                                   : AAC
Format/Info                              : Advanced Audio Codec
Format profile                           : HE-AAC / LC
Format settings                          : Explicit
Codec ID                                 : A_AAC-2
Duration                                 : 2 h 21 min
Bit rate                                 : 192 kb/s
Channel(s)                               : 6 channels
Channel positions                        : Front: L C R, Side: L R, LFE
Sampling rate                            : 48.0 kHz / 24.0 kHz
Frame rate                               : 23.438 FPS (1024 SPF)
Compression mode                         : Lossy
Delay relative to video                  : 31 ms
Stream size                              : 194 MiB (12%)
Title                                    : Hindi Org BD 5.1 192 kbps ~
Language                                 : English
Default                                  : Yes
Forced                                   : Yes
                                     
Audio #2
Format                                   : AAC
Format/Info                              : Advanced Audio Codec
Format profile                           : HE-AAC / LC
Format settings                          : Explicit
Codec ID                                 : A_AAC-2
Duration                                 : 2 h 21 min
Bit rate                                 : 155 kb/s
Channel(s)                               : 6 channels
Channel positions                        : Front: L C R, Side: L R, LFE
Sampling rate                            : 48.0 kHz / 24.0 kHz
Frame rate                               : 23.438 FPS (1024 SPF)
Compression mode                         : Lossy
Delay relative to video                  : 35 ms
Stream size                              : 157 MiB (9%)
Title                                    : Eng
Language                                 : English
Default                                  : No
Forced                                   : No



Text #1
Format                                   : PGS
Muxing mode                              : zlib
Codec ID                                 : S_HDMV/PGS
Codec ID/Info                            : Picture based subtitle format used on BDs/HD-DVDs
Duration                                 : 2 h 18 min
Bit rate                                 : 9 716 b/s
Count of elements                        : 3422
Stream size                              : 9.60 MiB (1%)
Title                                    : Eng PGS
Language                                 : English
Default                                  : No
Forced                                   : No

Text #2
Format                                   : PGS
Muxing mode                              : zlib
Codec ID                                 : S_HDMV/PGS
Codec ID/Info                            : Picture based subtitle format used on BDs/HD-DVDs
Duration                                 : 2 h 20 min
Bit rate                                 : 7 512 b/s
Count of elements                        : 2860
Stream size                              : 7.56 MiB (0%)
Title                                    : Hindi PGS
Language                                 : Hindi
Default                                  : Yes
Forced                                   : No

........................................................................


Loading...


Trackers:
udp://tracker.coppersurfer.tk:6969/announce

Bad Times At The El Royale (2018) 720p Bluray x264 {Hindi~Eng Org BD5.1)1.5GB[MOVCR]
Files
(www.Movcr.cc). -Bad Times At The El Royale (2018) 720p Bluray x264 {Hindi~Eng Org BD5.1)1.5GB[MOVCR].mkv --- 1.65 GB


Similar Torrents
Type Name Size Added S L
Divx/Xvid Bad Times at the El Royale.2018.HDRip.XviD.AC3-EVO
1.57 GB 2018-12-18 07:53:50 15934 7419
HD Bad.Times.at.the.El.Royale.2018.1080p.WEB-DL.DD5.1...
4.89 GB 2018-12-18 07:58:30 2016 1129
Divx/Xvid Bad Times at the El Royale.2018.HDRip.XViD.AC3-ETR...
1.41 GB 2018-12-18 10:05:29 1568 1250
HD Bad.Times.at.the.El.Royale.2018.WEB-DL.1080p Ita E...
2.52 GB 2018-12-19 15:13:55 1188 453
Cam/TS Bad Times at the El Royale 2018 720p HDCAM-1XBET
2.43 GB 2018-10-13 12:33:02 985 406
Cam/TS Bad Times at the El Royale 2018.HDCAM.XViD.AC3-ETR...
1.36 GB 2018-10-14 12:38:14 807 434
Dubs/Dual Audio Bad Times at the El Royale (2018) 720p BluRay x264...
1.24 GB 2019-01-05 16:26:02 530 459
h.264/x264 Bad Times at the El Royale.2018.720p.WEB-DL.H264.A...
4.41 GB 2018-12-18 08:01:45 295 123
Dubs/Dual Audio Bad Times At The El Royale 2018 x264 720p Esub Blu...
905.64 MB 2019-01-05 18:29:41 275 205
HD Bad.Times.At.The.El.Royale.2018.1080p.BluRay.x264-...
15.98 GB 2018-12-22 00:25:15 177 388

Comments:
No comments still posted
Loading...
Powered by TT | Page Generated In 0.079050 secs.
| RSS Feed | Feed Info