[Login] or [Signup]

First Cams

Xvid/x264



Non-English

Loading...

[Prof] Eden of the East Movie II: Paradise Lost (1080p x265 HEVC 10bit AAC 5.1 Eng Dub)


Complete Name :[Prof] Eden of the East Movie II: Paradise Lost (1080p x265 HEVC 10bit AAC 5.1 Eng Dub)
Download torrent:    [Prof] Eden of the East Movie II: Paradise Lost (1080p x265 HEVC 10bit AAC 5.1 Eng Dub).torrent
Info Hash:0a7c7529f55154336b129414d2153fa78a61cffc
Category:Anime  > All
Torrent language:English  
Seeds | Leech:10 | 0
Complete: 152
Health:
Total Size:865.71 MB
Downloaded:12 Times
Added By:      Prof
Date Added:30-05-2018 11:20:pm | Last Edit:  13-09-2018 04:52:pm

 

Main Technical Comments
Format                                   : Matroska
Format version                           : Version 4 / Version 2
File size                                : 866 MiB
Duration                                 : 1 h 32 min
Overall bit rate                         : 1 314 kb/s
Movie name                               : Eden of the East Paradise Lost
Encoded date                             : UTC 2018-05-30 15:55:12
Writing application                      : mkvmerge v9.6.0 ('Slave To Your Mind') 64bit
Writing library                          : libebml v1.3.4 + libmatroska v1.4.5

Video
ID                                       : 1
Format                                   : HEVC
Format/Info                              : High Efficiency Video Coding
Format profile                           : Main [email protected]@Main
Codec ID                                 : V_MPEGH/ISO/HEVC
Duration                                 : 1 h 32 min
Bit rate                                 : 1 037 kb/s
Width                                    : 1 920 pixels
Height                                   : 1 080 pixels
Display aspect ratio                     : 16:9
Frame rate mode                          : Constant
Frame rate                               : 23.976 (24000/1001) FPS
Color space                              : YUV
Chroma subsampling                       : 4:2:0
Bit depth                                : 10 bits
Bits/(Pixel*Frame)                       : 0.021
Stream size                              : 684 MiB (79%)
Writing library                          : x265 2.1+69-c97c64ab8b8e:[Windows][GCC 6.2.0][64 bit] 10bit
Encoding settings                        : cpuid=1173503 / frame-threads=2 / numa-pools=4 / wpp / no-pmode / no-pme / no-psnr / no-ssim / log-level=2 / input-csp=1 / input-res=1920x1080 / interlace=0 / total-frames=132529 / level-idc=0 / high-tier=1 / uhd-bd=0 / ref=4 / no-allow-non-conformance / no-repeat-headers / annexb / no-aud / no-hrd / info / hash=0 / no-temporal-layers / open-gop / min-keyint=23 / keyint=250 / bframes=4 / b-adapt=2 / b-pyramid / bframe-bias=0 / rc-lookahead=25 / lookahead-slices=4 / scenecut=40 / no-intra-refresh / ctu=64 / min-cu-size=8 / rect / no-amp / max-tu-size=32 / tu-inter-depth=1 / tu-intra-depth=1 / limit-tu=0 / rdoq-level=2 / signhide / no-tskip / nr-intra=0 / nr-inter=0 / no-constrained-intra / strong-intra-smoothing / max-merge=3 / limit-refs=3 / limit-modes / me=3 / subme=3 / merange=57 / temporal-mvp / weightp / no-weightb / no-analyze-src-pics / deblock=0:0 / sao / no-sao-non-deblock / rd=4 / no-early-skip / rskip / no-fast-intra / no-tskip-fast / no-cu-lossless / no-b-intra / rdpenalty=0 / psy-rd=2.00 / psy-rdoq=1.00 / no-rd-refine / analysis-mode=0 / no-lossless / cbqpoffs=0 / crqpoffs=0 / rc=crf / crf=19.0 / qcomp=0.60 / qpstep=4 / stats-write=0 / stats-read=0 / ipratio=1.40 / pbratio=1.30 / aq-mode=1 / aq-strength=1.00 / cutree / zone-count=0 / no-strict-cbr / qg-size=32 / no-rc-grain / qpmax=69 / qpmin=0 / sar=0 / overscan=0 / videoformat=5 / range=0 / colorprim=2 / transfer=2 / colormatrix=2 / chromaloc=0 / display-window=0 / max-cll=0,0 / min-luma=0 / max-luma=1023 / log2-max-poc-lsb=8 / vui-timing-info / vui-hrd-info / slices=1 / opt-qp-pps / opt-ref-list-length-pps / no-multi-pass-opt-rps / scenecut-bias=0.05
Default                                  : Yes
Forced                                   : No

Audio
ID                                       : 2
Format                                   : AAC
Format/Info                              : Advanced Audio Codec
Format profile                           : LC
Codec ID                                 : A_AAC
Duration                                 : 1 h 32 min
Bit rate                                 : 259 kb/s
Channel(s)                               : 6 channels
Channel positions                        : Front: L C R, Side: L R, LFE
Sampling rate                            : 48.0 kHz
Frame rate                               : 46.875 FPS (1024 spf)
Compression mode                         : Lossy
Delay relative to video                  : 9 ms
Stream size                              : 170 MiB (20%)
Language                                 : English
Default                                  : No
Forced                                   : No

Text #1
ID                                       : 3
Format                                   : PGS
Muxing mode                              : zlib
Codec ID                                 : S_HDMV/PGS
Codec ID/Info                            : Picture based subtitle format used on BDs/HD-DVDs
Duration                                 : 1 h 30 min
Bit rate                                 : 12.8 kb/s
Count of elements                        : 2037
Stream size                              : 8.30 MiB (1%)
Language                                 : English
Default                                  : No
Forced                                   : No

Text #2
ID                                       : 4
Format                                   : PGS
Muxing mode                              : zlib
Codec ID                                 : S_HDMV/PGS
Codec ID/Info                            : Picture based subtitle format used on BDs/HD-DVDs
Duration                                 : 1 h 27 min
Bit rate                                 : 3 033 b/s
Count of elements                        : 201
Stream size                              : 1.90 MiB (0%)
Language                                 : English
Default                                  : No
Forced                                   : No

Menu
00:00:00.000                             : en:Chapter 01
00:02:01.246                             : en:Chapter 02
00:04:03.034                             : en:Chapter 03
00:11:20.262                             : en:Chapter 04
00:17:56.533                             : en:Chapter 05
00:20:30.562                             : en:Chapter 06
00:24:15.370                             : en:Chapter 07
00:31:59.709                             : en:Chapter 08
00:37:14.732                             : en:Chapter 09
00:43:58.552                             : en:Chapter 10
00:50:35.157                             : en:Chapter 11
00:56:04.194                             : en:Chapter 12
01:02:35.168                             : en:Chapter 13
01:06:26.857                             : en:Chapter 14
01:12:29.928                             : en:Chapter 15
01:19:32.184                             : en:Chapter 16
01:25:36.172                             : en:Chapter 17
01:29:40.208                             : en:Chapter 18
........................................................................


Loading...


Trackers:
udp://tracker.zer0day.to:1337/announce

[Prof] Eden of the East Movie II: Paradise Lost (1080p x265 HEVC 10bit AAC 5.1 Eng Dub)
Files
[Prof] Eden of the East Movie II - Paradise Lost.mkv865.71 MB


Similar Torrents
Type Name Size Added S L
All [Prof] Eden of the East (1080p x265 HEVC 10bit AAC...
2.71 GB 2018-05-30 07:17:21 12 0
All [Prof] Eden of the East Movie I: The King of Eden ...
843.86 MB 2018-05-30 08:23:38 11 0

Comments:
No comments still posted
Loading...
Powered by TT | Page Generated In 0.043167 secs.
| RSS Feed | Feed Info