[Login] or [Signup]

First Cams

Xvid/x264



Non-English

Loading...

[Prof] Eden of the East Movie I: The King of Eden (1080p x265 HEVC 10bit AAC 5.1 Eng Dub)


Complete Name :[Prof] Eden of the East Movie I: The King of Eden (1080p x265 HEVC 10bit AAC 5.1 Eng Dub)
Download torrent:    [Prof] Eden of the East Movie I: The King of Eden (1080p x265 HEVC 10bit AAC 5.1 Eng Dub).torrent
Info Hash:61edc3f67a2aaf4be2781ed4e8b1db9a7e86657b
Category:Anime  > All
Torrent language:English  
Seeds | Leech:11 | 0
Complete: 153
Health:
Total Size:843.86 MB
Downloaded:13 Times
Added By:      Prof
Date Added:30-05-2018 09:23:am | Last Edit:  13-09-2018 04:52:pm

 

IMDB
Eden of the East the Movie I: The King of Eden
Eden of the East the Movie I: The King of Eden Released 28 Nov 2009

Genre Animation, Action, Comedy

Director Kenji Kamiyama

Writer Kenji Kamiyama (story and screenplay)

Actors Christine M. Auten, John Burgmeier, Leah Clark, Takuya Eguchi

Plot Picking up from where the TV series left off, Saki Morimi is back in the United States, trying to find Akira Takizawa. Meanwhile, other Selecao begin to truly play the game, some taking ...

Link https://www.imdb.com/title/tt1460738/

Last Updated 19-10-2018 14:19:39
7.1

Votes 1,210

Main Technical Comments
Format                                   : Matroska
Format version                           : Version 4 / Version 2
File size                                : 844 MiB
Duration                                 : 1 h 21 min
Overall bit rate                         : 1 450 kb/s
Movie name                               : Eden_King_of_Eden
Encoded date                             : UTC 2018-05-30 03:10:40
Writing application                      : mkvmerge v9.6.0 ('Slave To Your Mind') 64bit
Writing library                          : libebml v1.3.4 + libmatroska v1.4.5

Video
ID                                       : 1
Format                                   : HEVC
Format/Info                              : High Efficiency Video Coding
Format profile                           : Main [email protected]@Main
Codec ID                                 : V_MPEGH/ISO/HEVC
Duration                                 : 1 h 21 min
Bit rate                                 : 1 177 kb/s
Width                                    : 1 920 pixels
Height                                   : 1 080 pixels
Display aspect ratio                     : 16:9
Frame rate mode                          : Constant
Frame rate                               : 23.976 (24000/1001) FPS
Color space                              : YUV
Chroma subsampling                       : 4:2:0
Bit depth                                : 10 bits
Bits/(Pixel*Frame)                       : 0.024
Stream size                              : 685 MiB (81%)
Writing library                          : x265 2.1+69-c97c64ab8b8e:[Windows][GCC 6.2.0][64 bit] 10bit
Encoding settings                        : cpuid=1173503 / frame-threads=2 / numa-pools=4 / wpp / no-pmode / no-pme / no-psnr / no-ssim / log-level=2 / input-csp=1 / input-res=1920x1080 / interlace=0 / total-frames=117049 / level-idc=0 / high-tier=1 / uhd-bd=0 / ref=4 / no-allow-non-conformance / no-repeat-headers / annexb / no-aud / no-hrd / info / hash=0 / no-temporal-layers / open-gop / min-keyint=23 / keyint=250 / bframes=4 / b-adapt=2 / b-pyramid / bframe-bias=0 / rc-lookahead=25 / lookahead-slices=4 / scenecut=40 / no-intra-refresh / ctu=64 / min-cu-size=8 / rect / no-amp / max-tu-size=32 / tu-inter-depth=1 / tu-intra-depth=1 / limit-tu=0 / rdoq-level=2 / signhide / no-tskip / nr-intra=0 / nr-inter=0 / no-constrained-intra / strong-intra-smoothing / max-merge=3 / limit-refs=3 / limit-modes / me=3 / subme=3 / merange=57 / temporal-mvp / weightp / no-weightb / no-analyze-src-pics / deblock=0:0 / sao / no-sao-non-deblock / rd=4 / no-early-skip / rskip / no-fast-intra / no-tskip-fast / no-cu-lossless / no-b-intra / rdpenalty=0 / psy-rd=2.00 / psy-rdoq=1.00 / no-rd-refine / analysis-mode=0 / no-lossless / cbqpoffs=0 / crqpoffs=0 / rc=crf / crf=19.0 / qcomp=0.60 / qpstep=4 / stats-write=0 / stats-read=0 / ipratio=1.40 / pbratio=1.30 / aq-mode=1 / aq-strength=1.00 / cutree / zone-count=0 / no-strict-cbr / qg-size=32 / no-rc-grain / qpmax=69 / qpmin=0 / sar=0 / overscan=0 / videoformat=5 / range=0 / colorprim=2 / transfer=2 / colormatrix=2 / chromaloc=0 / display-window=0 / max-cll=0,0 / min-luma=0 / max-luma=1023 / log2-max-poc-lsb=8 / vui-timing-info / vui-hrd-info / slices=1 / opt-qp-pps / opt-ref-list-length-pps / no-multi-pass-opt-rps / scenecut-bias=0.05
Default                                  : Yes
Forced                                   : No

Audio
ID                                       : 2
Format                                   : AAC
Format/Info                              : Advanced Audio Codec
Format profile                           : LC
Codec ID                                 : A_AAC
Duration                                 : 1 h 21 min
Bit rate                                 : 249 kb/s
Channel(s)                               : 6 channels
Channel positions                        : Front: L C R, Side: L R, LFE
Sampling rate                            : 48.0 kHz
Frame rate                               : 46.875 FPS (1024 spf)
Compression mode                         : Lossy
Delay relative to video                  : 9 ms
Stream size                              : 145 MiB (17%)
Language                                 : English
Default                                  : No
Forced                                   : No

Text #1
ID                                       : 3
Format                                   : PGS
Muxing mode                              : zlib
Codec ID                                 : S_HDMV/PGS
Codec ID/Info                            : Picture based subtitle format used on BDs/HD-DVDs
Duration                                 : 1 h 20 min
Bit rate                                 : 15.6 kb/s
Count of elements                        : 1860
Stream size                              : 8.98 MiB (1%)
Language                                 : English
Default                                  : No
Forced                                   : No

Text #2
ID                                       : 4
Format                                   : PGS
Muxing mode                              : zlib
Codec ID                                 : S_HDMV/PGS
Codec ID/Info                            : Picture based subtitle format used on BDs/HD-DVDs
Duration                                 : 1 h 20 min
Bit rate                                 : 5 828 b/s
Count of elements                        : 178
Stream size                              : 3.35 MiB (0%)
Language                                 : English
Default                                  : No
Forced                                   : No

Menu
00:00:00.000                             : en:Chapter 01
00:05:15.398                             : en:Chapter 02
00:07:17.437                             : en:Chapter 03
00:13:57.962                             : en:Chapter 04
00:17:51.070                             : en:Chapter 05
00:23:07.052                             : en:Chapter 06
00:29:30.018                             : en:Chapter 07
00:32:32.700                             : en:Chapter 08
00:38:47.158                             : en:Chapter 09
00:44:14.318                             : en:Chapter 10
00:50:04.001                             : en:Chapter 11
00:54:58.461                             : en:Chapter 12
00:59:57.885                             : en:Chapter 13
01:05:44.732                             : en:Chapter 14
01:10:17.880                             : en:Chapter 15
01:16:44.600                             : en:Chapter 16
01:21:11.867                             : en:Chapter 17

........................................................................


Loading...


Trackers:
udp://tracker.zer0day.to:1337/announce

[Prof] Eden of the East Movie I: The King of Eden (1080p x265 HEVC 10bit AAC 5.1 Eng Dub)
Files
[Prof] Eden of the East Movie I - The King of Eden.mkv843.86 MB


Similar Torrents
Type Name Size Added S L
All [Prof] Eden of the East (1080p x265 HEVC 10bit AAC...
2.71 GB 2018-05-30 07:17:21 12 0
All [Prof] Eden of the East Movie II: Paradise Lost (1...
865.71 MB 2018-05-30 22:20:30 10 0

Comments:
No comments still posted
Loading...
Powered by TT | Page Generated In 0.603079 secs.
| RSS Feed | Feed Info