[Login] or [Signup]

Navigation

First Cams

Xvid/x264



Non-English

Warning! Use a VPN When Downloading Torrents!
Your IP Address is .   Location is
Your Internet Provider is tracking your torrent activity!  Hide your IP ADDRESS with a VPN!
We strongly recommend using Trust.Zone VPN to anonymize your torrenting. It's FREE!
Get VPN Now for FREE!
Raid (2018) 720p Hindi HDRip x264 AC3 [Hindi - 5.1] +Esubs by Full4movies

 Download:  
 Info Hash:af0745ab524d20d89547cbe2b5e8de38fd003eca
 Category:Movies > Non-English
 Seeds: 57
 Leechers: 0
 Health:
 Lang:Hindi  Hindi
 Total Size:1.20 GB
 Added By:full4movies
 Date Added:27-05-2018 19:49:38
 Views:68
 Hits:4

 
IMDB
Raid
Raid Released 16 Mar 2018

Genre Action, Crime, Drama

Director Raj Kumar Gupta

Writer Ritesh Shah

Actors Ajay Devgn, Saurabh Shukla, Ileana D'Cruz, Amit Sial

Plot A fearless income tax officer raids the mansion of the most powerful man in Lucknow after someone mysteriously draws his attention towards the evidence.

Link http://www.imdb.com/title/tt7363076

Last Updated 22-06-2018 14:30:04
8.0

Votes 2,016

Details
Description:


General
Complete name                  : Raid (2018) 720p Hindi HDRip x264 AC3 [Hindi - 5.1] +Esubs by Full4movies.mkv
Format                         : Matroska
Format version                 : Version 4 / Version 2
File size                      : 1.20 GiB
Duration                       : 1 h 55 min
Overall bit rate               : 1 490 kb/s
Movie name                     : Raid (2018) 720p - www.Full4mvoeis.co
Encoded date                   : UTC 2018-05-27 16:34:01
Writing application            : mkvmerge v8.1.0 ('Psychedelic Postcard') 32bit
Writing library                : libebml v1.3.1 + libmatroska v1.4.2

Video
ID                             : 1
Format                         : AVC
Format/Info                    : Advanced Video Codec
Format profile                 : High@L3.1
Format settings, CABAC         : Yes
Format settings, RefFrames     : 4 frames
Codec ID                       : V_MPEG4/ISO/AVC
Duration                       : 1 h 55 min
Bit rate                       : 1 328 kb/s
Width                          : 1 280 pixels
Height                         : 536 pixels
Display aspect ratio           : 2.40:1
Frame rate mode                : Constant
Frame rate                     : 25.000 FPS
Color space                    : YUV
Chroma subsampling             : 4:2:0
Bit depth                      : 8 bits
Scan type                      : Progressive
Bits/(Pixel*Frame)             : 0.077
Stream size                    : 1.07 GiB (89%)
Writing library                : x264 core 155 r2901 7d0ff22
Language                       : Hindi
Default                        : Yes
Forced                         : No

Audio
ID                             : 2
Format                         : AC-3
Format/Info                    : Audio Coding 3
Format settings, Endianness    : Big
Codec ID                       : A_AC3
Duration                       : 1 h 55 min
Bit rate mode                  : Constant
Bit rate                       : 160 kb/s
Channel(s)                     : 6 channels
Channel positions              : Front: L C R, Side: L R, LFE
Sampling rate                  : 44.1 kHz
Frame rate                     : 28.711 FPS (1536 SPF)
Bit depth                      : 16 bits
Compression mode               : Lossy
Stream size                    : 132 MiB (11%)
Language                       : Hindi
Service kind                   : Complete Main
Default                        : Yes
Forced                         : No

Text
ID                             : 3
Format                         : UTF-8
Codec ID                       : S_TEXT/UTF8
Codec ID/Info                  : UTF-8 Plain Text
Duration                       : 1 h 52 min
Bit rate                       : 60 b/s
Count of elements              : 1521
Stream size                    : 49.5 KiB (0%)
Language                       : English
Default                        : Yes
Forced                         : No

Screen Shoots



Loading...

Ratings:Not Yet Rated (Log in to rate it)

Tracker:
udp://tracker.coppersurfer.tk:6969/announce


File List: 


Similar Torrents
Type Name Size Added S L
Non-English Raid (2018) Hindi 720p HDRip x264 AAC ESubs [Audio...
932.26 MB 2018-05-27 22:23:09 3580 612
Non-English Raid (2018) Pre DVD Rip - x264 - AAC - DTOne
1.48 GB 2018-03-30 20:47:33 229 83
h.264/x264 Raid (2018) Hindi True HDTV-Rip x264 MP3 by Full4m...
701.96 MB 2018-05-27 16:09:48 39 4
h.264/x264 Raid (2018) Hindi HDRip x264 MP3 - Esubs by Full4m...
705.90 MB 2018-05-27 20:08:58 34 15
h.264/x264 Raid (2018) 720p Hindi True HDTV-Rip x264 AAC by F...
1.39 GB 2018-05-27 15:50:41 13 6

Comments

No comments still posted

Loading...
Powered by TorrentTrader v2-svn -|- Page Generated In 0.245626 secs.
www.torrenttrader.org -|- -|- RSS Feed -|- Feed Info
Theme By: Nikkbu