[Login] or [Signup]

First Cams

Xvid/x264



Non-English

Loading...

Krishnarjuna Yuddham (2018) 720p Telugu HDRip x264 AAC - ESubs by india4movie

 Download:  
 Info Hash:dd3eb34b9aac7f3bea54bc2c709b912320e60e44
 Category:Movies > Non-English
 Seeds: 63
 Leechers: 15
 Health:
 Lang:Other
 Total Size:1.36 GB
 Added By:full4movies
 Date Added:26-05-2018 22:09:46

 

Details
Description:


General
Complete name                  : Krishnarjuna Yuddham (2018) 720p Telugu HDRip x264 AAC - ESubs by india4movie.mkv
Format                         : Matroska
Format version                 : Version 4 / Version 2
File size                      : 1.36 GiB
Duration                       : 2 h 33 min
Overall bit rate               : 1 271 kb/s
Movie name                     : Krishnarjuna Yuddham (2018) - www.india4movie.com
Encoded date                   : UTC 2018-05-26 17:15:20
Writing application            : mkvmerge v8.1.0 ('Psychedelic Postcard') 32bit
Writing library                : libebml v1.3.1 + libmatroska v1.4.2

Video
ID                             : 1
Format                         : AVC
Format/Info                    : Advanced Video Codec
Format profile                 : [email protected]
Format settings, CABAC         : Yes
Format settings, RefFrames     : 4 frames
Codec ID                       : V_MPEG4/ISO/AVC
Duration                       : 2 h 33 min
Bit rate                       : 1 144 kb/s
Width                          : 1 280 pixels
Height                         : 544 pixels
Display aspect ratio           : 2.35:1
Frame rate mode                : Constant
Frame rate                     : 25.000 FPS
Color space                    : YUV
Chroma subsampling             : 4:2:0
Bit depth                      : 8 bits
Scan type                      : Progressive
Bits/(Pixel*Frame)             : 0.066
Stream size                    : 1.22 GiB (90%)
Writing library                : x264 core 112
Language                       : English
Default                        : Yes
Forced                         : No
Color range                    : Limited
Color primaries                : BT.709
Transfer characteristics       : BT.709
Matrix coefficients            : BT.709

Audio
ID                             : 2
Format                         : AAC
Format/Info                    : Advanced Audio Codec
Format profile                 : LC
Codec ID                       : A_AAC
Duration                       : 2 h 33 min
Bit rate                       : 128 kb/s
Channel(s)                     : 2 channels
Channel positions              : Front: L R
Sampling rate                  : 48.0 kHz
Frame rate                     : 46.875 FPS (1024 SPF)
Compression mode               : Lossy
Stream size                    : 140 MiB (10%)
Language                       : Telugu
Default                        : Yes
Forced                         : No

Text
ID                             : 3
Format                         : UTF-8
Codec ID                       : S_TEXT/UTF8
Codec ID/Info                  : UTF-8 Plain Text
Duration                       : 2 h 33 min
Bit rate                       : 66 b/s
Count of elements              : 2029
Stream size                    : 75.2 KiB (0%)
Language                       : English
Default                        : Yes
Forced                         : No

Screen Shoots


Loading...

Ratings:Not Yet Rated (Log in to rate it)

Tracker:
udp://tracker.coppersurfer.tk:6969/announce


File List: 


Comments

No comments still posted

Loading...
Powered by TT | Page Generated In 0.020212 secs.
| RSS Feed | Feed Info