[Login] or [Signup]

Navigation

First Cams

Xvid/x264



Non-English

Warning! Use a VPN When Downloading Torrents!
Your IP Address is .   Location is
Your Internet Provider is tracking your torrent activity!  Hide your IP ADDRESS with a VPN!
We strongly recommend using Trust.Zone VPN to anonymize your torrenting. It's FREE!
Get VPN Now for FREE!
The Invasion (2007) 720p Hindi Dubbed HDRip x264 AAC by Full4movies

 Download:  
 Info Hash:13705d5fad559853ded6bacc34066afc4c0e35a6
 Category:Movies > Non-English
 Seeds: 61
 Leechers: 5
 Health:
 Lang:Hindi  Hindi
 Total Size:717.92 MB
 Added By:full4movies
 Date Added:26-05-2018 15:23:53
 Views:35
 Hits:1

 
IMDB
The Invasion
The Invasion Released 17 Aug 2007

Genre Sci-Fi, Thriller

Director Oliver Hirschbiegel, James McTeigue

Writer David Kajganich (screenplay), Jack Finney (novel)

Actors Nicole Kidman, Daniel Craig, Jeremy Northam, Jackson Bond

Plot As a Washington, D.C. psychiatrist unearths the origin of an alien epidemic, she also discovers her son might be the only way it can be stopped.

Link http://www.imdb.com/title/tt0427392

Last Updated 22-06-2018 14:25:53
5.9

Votes 68,761

Details
Description:


General
Complete name                  : Fatal Crossing (2018) HDRip x264 AAC by Full4movies.mkv
Format                         : Matroska
Format version                 : Version 4 / Version 2
File size                      : 385 MiB
Duration                       : 1 h 33 min
Overall bit rate               : 576 kb/s
Movie name                     : Fatal Crossing (2018) - www.Full4movies.co
Encoded date                   : UTC 2018-05-26 10:12:48
Writing application            : mkvmerge v8.1.0 ('Psychedelic Postcard') 32bit
Writing library                : libebml v1.3.1 + libmatroska v1.4.2

Video
ID                             : 1
Format                         : AVC
Format/Info                    : Advanced Video Codec
Format profile                 : High@L3.1
Format settings, CABAC         : Yes
Format settings, RefFrames     : 5 frames
Codec ID                       : V_MPEG4/ISO/AVC
Duration                       : 1 h 33 min
Bit rate                       : 512 kb/s
Width                          : 720 pixels
Height                         : 304 pixels
Display aspect ratio           : 2.35:1
General
Complete name                  : The Invasion (2007) 720p Hindi Dubbed HDRip x264 AAC by Full4movies.mkv
Format                         : Matroska
Format version                 : Version 4 / Version 2
File size                      : 718 MiB
Duration                       : 1 h 39 min
Overall bit rate               : 1 010 kb/s
Movie name                     : The Invasion (2007) - www.Full4movies.co
Encoded date                   : UTC 2018-05-26 10:15:02
Writing application            : mkvmerge v8.1.0 ('Psychedelic Postcard') 32bit
Writing library                : libebml v1.3.1 + libmatroska v1.4.2

Video
ID                             : 1
Format                         : AVC
Format/Info                    : Advanced Video Codec
Format profile                 : High@L4.1
Format settings, CABAC         : Yes
Format settings, RefFrames     : 4 frames
Codec ID                       : V_MPEG4/ISO/AVC
Duration                       : 1 h 39 min
Bit rate                       : 900 kb/s
Width                          : 1 280 pixels
Height                         : 714 pixels
Display aspect ratio           : 16:9
Original display aspect ratio  : 16:9
Frame rate mode                : Variable
Frame rate                     : 23.976 FPS
Color space                    : YUV
Chroma subsampling             : 4:2:0
Bit depth                      : 8 bits
Scan type                      : Progressive
Bits/(Pixel*Frame)             : 0.041
Stream size                    : 639 MiB (89%)
Writing library                : x264 core 148
Language                       : English
Default                        : Yes
Forced                         : No

Audio
ID                             : 2
Format                         : AAC
Format/Info                    : Advanced Audio Codec
Format profile                 : LC
Codec ID                       : A_AAC
Duration                       : 1 h 39 min
Bit rate                       : 108 kb/s
Channel(s)                     : 2 channels
Channel positions              : Front: L R
Sampling rate                  : 48.0 kHz
Frame rate                     : 46.875 FPS (1024 SPF)
Compression mode               : Lossy
Delay relative to video        : -64 ms
Stream size                    : 76.5 MiB (11%)
Language                       : Hindi
Default                        : Yes
Forced                         : No

Screen Shoots


Loading...

Ratings:Not Yet Rated (Log in to rate it)

Tracker:
udp://tracker.coppersurfer.tk:6969/announce


File List: 


Similar Torrents
Type Name Size Added S L
Audio books The Invasion [Trilogy] - W. J. Lundy
1.18 GB 2018-06-08 17:56:06 58 3

Comments

No comments still posted

Loading...
Powered by TorrentTrader v2-svn -|- Page Generated In 0.623158 secs.
www.torrenttrader.org -|- -|- RSS Feed -|- Feed Info
Theme By: Nikkbu