[Login] or [Signup]

First Cams

Xvid/x264



Non-English

Loading...

Eeti (2015) 720p Hindi Dubbed HDRip x264 AAC by Full4movies


Complete Name :Eeti (2015) 720p Hindi Dubbed HDRip x264 AAC by Full4movies
Download torrent:    Eeti (2015) 720p Hindi Dubbed HDRip x264 AAC by Full4movies.torrent
Info Hash:5c2578c318b435fc888006c33b1fa178a1434228
Category:Movies  > Non-English
Torrent language:Hindi  
Seeds | Leech:13 | 26
Complete: 535
Health:
Total Size:1.02 GB
Downloaded:13 Times
Added By:      full4movies
Date Added:26-05-2018 03:13:pm | Last Edit:  13-09-2018 04:52:pm

 

Main Technical Comments


General
Complete name                  : Eeti (2015) 720p Hindi Dubbed HDRip x264 AAC by Full4movies.mkv
Format                         : Matroska
Format version                 : Version 4 / Version 2
File size                      : 1.02 GiB
Duration                       : 2 h 13 min
Overall bit rate               : 1 092 kb/s
Movie name                     : Eeti (2015) Hindi - www.Full4movies.co
Encoded date                   : UTC 2018-05-26 10:11:47
Writing application            : mkvmerge v8.1.0 ('Psychedelic Postcard') 32bit
Writing library                : libebml v1.3.1 + libmatroska v1.4.2

Video
ID                             : 1
Format                         : AVC
Format/Info                    : Advanced Video Codec
Format profile                 : [email protected]
Format settings, CABAC         : Yes
Format settings, RefFrames     : 3 frames
Codec ID                       : V_MPEG4/ISO/AVC
Duration                       : 2 h 13 min
Bit rate                       : 964 kb/s
Width                          : 1 280 pixels
Height                         : 720 pixels
Display aspect ratio           : 16:9
Frame rate mode                : Constant
Frame rate                     : 24.000 FPS
Color space                    : YUV
Chroma subsampling             : 4:2:0
Bit depth                      : 8 bits
Scan type                      : Progressive
Bits/(Pixel*Frame)             : 0.044
Stream size                    : 921 MiB (88%)
Default                        : Yes
Forced                         : No
Color range                    : Limited
Color primaries                : BT.709
Transfer characteristics       : BT.709
Matrix coefficients            : BT.709

Audio
ID                             : 2
Format                         : AAC
Format/Info                    : Advanced Audio Codec
Format profile                 : LC
Codec ID                       : A_AAC
Duration                       : 2 h 13 min
Bit rate                       : 126 kb/s
Channel(s)                     : 2 channels
Channel positions              : Front: L R
Sampling rate                  : 44.1 kHz
Frame rate                     : 43.066 FPS (1024 SPF)
Compression mode               : Lossy
Stream size                    : 120 MiB (11%)
Language                       : Hindi
Default                        : Yes
Forced                         : No

Screen Shoots
........................................................................


Loading...


Trackers:
udp://tracker.coppersurfer.tk:6969/announce

Eeti (2015) 720p Hindi Dubbed HDRip x264 AAC by Full4movies
Files
Eeti (2015) 720p Hindi Dubbed HDRip x264 AAC by Full4movies.mkv1.02 GB


Comments:
No comments still posted
Loading...
Powered by TT | Page Generated In 0.038987 secs.
| RSS Feed | Feed Info