[Login] or [Signup]

Navigation

First Cams

Xvid/x264



Non-English

Warning! Use a VPN When Downloading Torrents!
Your IP Address is .   Location is
Your Internet Provider is tracking your torrent activity!  Hide your IP ADDRESS with a VPN!
We strongly recommend using Trust.Zone VPN to anonymize your torrenting. It's FREE!
Get VPN Now for FREE!
Balu Mahi 2017 Hindi 720p WEB-DL x264 ESub [MW]

 Download:  
 Info Hash:210d4360c86aeae171c43772ca9173d8cc157d6a
 Category:Movies > Non-English
 Seeds: 141
 Leechers: 38
 Health:
 Lang:Hindi  Hindi
 Total Size:1.07 GB
 Added By:MovieFreak
 Date Added:26-05-2018 11:20:45
 Views:122
 Hits:5

 
IMDB
Balu Mahi
Balu Mahi Released 10 Feb 2017

Genre Romance

Director Haissam Hussain

Writer Saad Azhar

Actors Osman Khalid Butt, Ainy Jaffri, Sadaf Kanwal, Zeeshan Ali

Plot When a young man crashes the wrong wedding, the bride seizes the opportunity to make a run for it and together they attempt to evade her overbearing grandfather.

Link http://www.imdb.com/title/tt5370442

Last Updated 22-06-2018 14:32:58
8.0

Votes 214

Details
Description:
[center]



General
Format                                   : Matroska
Format version                           : Version 4 / Version 2
File size                                : 1.07 GiB
Duration                                 : 2 h 29 min
Overall bit rate                         : 1 025 kb/s

Video
ID                                       : 1
Format                                   : AVC
Format/Info                              : Advanced Video Codec
Format profile                           : High@L4.1
Format settings                          : CABAC / 4 Ref Frames
Format settings, CABAC                   : Yes
Format settings, RefFrames               : 4 frames
Codec ID                                 : V_MPEG4/ISO/AVC
Duration                                 : 2 h 29 min
Bit rate                                 : 900 kb/s
Width                                    : 1 280 pixels
Height                                   : 536 pixels
Display aspect ratio                     : 2.40:1
Frame rate mode                          : Constant
Frame rate                               : 24.000 FPS
Color space                              : YUV
Chroma subsampling                       : 4:2:0
Bit depth                                : 8 bits
Scan type                                : Progressive
Bits/(Pixel*Frame)                       : 0.055
Stream size                              : 957 MiB (87%)
Writing library                          : x264 core 155 r2893 b00bcaf
Default                                  : Yes
Forced                                   : No

Audio
ID                                       : 2
Format                                   : AAC
Format/Info                              : Advanced Audio Codec
Format profile                           : HE-AAC / LC
Format settings                          : Explicit
Codec ID                                 : A_AAC-2
Duration                                 : 2 h 29 min
Bit rate                                 : 127 kb/s
Channel(s)                               : 2 channels
Channel positions                        : Front: L R
Sampling rate                            : 48.0 kHz / 24.0 kHz
Frame rate                               : 23.438 FPS (1024 SPF)
Compression mode                         : Lossy
Stream size                              : 135 MiB (12%)
Default                                  : Yes
Forced                                   : No

Text
ID                                       : 3
Format                                   : UTF-8
Codec ID                                 : S_TEXT/UTF8
Codec ID/Info                            : UTF-8 Plain Text
Duration                                 : 2 h 25 min
Bit rate                                 : 50 b/s
Count of elements                        : 1733
Stream size                              : 54.2 KiB (0%)
Default                                  : Yes
Forced                                   : No






[/center]


Loading...

Ratings:Not Yet Rated (Log in to rate it)

Tracker:
udp://tracker.pirateparty.gr:6969/announce


File List: 


Comments

No comments still posted

Loading...
Powered by TorrentTrader v2-svn -|- Page Generated In 0.238020 secs.
www.torrenttrader.org -|- -|- RSS Feed -|- Feed Info
Theme By: Nikkbu