[Login] or [Signup]

First Cams

Xvid/x264



Non-English

Loading...

Mercury (2018) 720p HDRip [Hindi + English + Telugu + Tamil + Malayalam] x264 AAC by Full4movies

 Download:  
 Info Hash:ac8f4304bdf03a46f44288cbd69f640b783a2af8
 Category:Movies > h.264/x264
 Seeds: 1,515
 Leechers: 162
 Health:
 Lang:English  English
 Total Size:1.04 GB
 Added By:full4movies
 Date Added:25-05-2018 20:33:34

 

Details
Description:


General
Complete name                  : Mercury (2018) 720p HDRip [Hindi + English + Telugu + Tamil + Malayalam] x264 AAC by Full4movies.mkv
Format                         : Matroska
Format version                 : Version 4 / Version 2
File size                      : 1.04 GiB
Duration                       : 1 h 46 min
Overall bit rate               : 1 399 kb/s
Movie name                     : Mercury (2018) - www.Full4movies.co
Encoded date                   : UTC 2018-05-25 17:21:04
Writing application            : mkvmerge v8.1.0 ('Psychedelic Postcard') 32bit
Writing library                : libebml v1.3.1 + libmatroska v1.4.2

Video
ID                             : 1
Format                         : AVC
Format/Info                    : Advanced Video Codec
Format profile                 : [email protected]
Format settings, CABAC         : Yes
Format settings, RefFrames     : 5 frames
Codec ID                       : V_MPEG4/ISO/AVC
Duration                       : 1 h 46 min
Bit rate                       : 1 280 kb/s
Width                          : 1 280 pixels
Height                         : 720 pixels
Display aspect ratio           : 16:9
Frame rate mode                : Constant
Frame rate                     : 25.000 FPS
Color space                    : YUV
Chroma subsampling             : 4:2:0
Bit depth                      : 8 bits
Scan type                      : Progressive
Bits/(Pixel*Frame)             : 0.056
Stream size                    : 964 MiB (91%)
Writing library                : x264 core 148 r2643 5c65704
Default                        : Yes
Forced                         : No

Audio
ID                             : 2
Format                         : AAC
Format/Info                    : Advanced Audio Codec
Format profile                 : LC
Codec ID                       : A_AAC
Duration                       : 1 h 46 min
Bit rate                       : 126 kb/s
Channel(s)                     : 2 channels
Channel positions              : Front: L R
Sampling rate                  : 44.1 kHz
Frame rate                     : 43.066 FPS (1024 SPF)
Compression mode               : Lossy
Delay relative to video        : -23 ms
Stream size                    : 95.5 MiB (9%)
Language                       : English
Default                        : Yes
Forced                         : No

Screen Shoots


Loading...

Ratings:Not Yet Rated (Log in to rate it)

Tracker:
udp://tracker.coppersurfer.tk:6969/announce


File List: 


Similar Torrents
Type Name Size Added S L
Video [RealityKings] Carolina Sweets, Cadey Mercury - Hi...
303.54 MB 2018-06-16 15:50:14 2761 247
Non-English Mercury (2018) HDRip [Hindi + Telugu + Tamil + Mal...
484.52 MB 2018-05-24 20:55:39 2082 1419
Audio Freddie Mercury - The Singles (2CD)(2016)[FLAC]
622.71 MB 2018-06-06 14:02:15 453 86
Video AssTraffic - Lina Mercury NEW 24 May 2018
932.58 MB 2018-05-24 10:25:33 300 138
Video SneakySex - Carolina Sweets, Cadey Mercury (Hide T...
303.54 MB 2018-06-17 16:03:36 69 14
HD Mercury.13.2018.1080p.NF.WEB-DL.DD5.1.x264-NTG[EtH...
4.19 GB 2018-04-24 17:57:53 64 29
Video AssHoleFever - Lina Mercury (Ramming Linas Booty) ...
465.82 MB 2018-04-25 09:53:00 62 23
Video [AllInternal] Lina Mercury (01.06.2018) rq.mp4
914.87 MB 2018-06-01 09:12:14 57 10
Video 21EroticAnal - Lina Mercury (Anal Garden) NEW 03 M...
320.32 MB 2018-05-03 08:23:06 50 0
Video AllInternal - Lina Mercury aka Linda Weasley NEW 0...
914.87 MB 2018-06-01 12:21:20 21 25

Comments

No comments still posted

Loading...
Powered by TT | Page Generated In 0.022699 secs.
| RSS Feed | Feed Info