Warning! Use a VPN When Downloading Torrents!
Your IP Address is .   Location is
Your Internet Provider is tracking your torrent activity!  Hide your IP ADDRESS with a VPN!
We strongly recommend using ExpressVPN to anonymize your torrenting. 30 Day Money Back Guarantee!
Try it Now!
First Cams

Xvid/x264



Non-English

Site Friends
      ETTV

      WorldWide Torrents

      Free Tutorials

      Aiosearch


Loading...

Mercury (2018) 720p HDRip [Hindi + English + Telugu + Tamil + Malayalam] x264 AAC by Full4movies


Download torrent:    
Info Hash:  ac8f4304bdf03a46f44288cbd69f640b783a2af8
Category:  Movies  > h.264/x264
Torrent language:  English  
Seeds | Leech:  1,515 | 162
Complete:   30,131
Health:   
Total Size:  1.04 GB
Added By:        full4movies
Date Added:  25-05-2018 08:33:pm | Last Edit:  27-01-2019 01:01:am

Un système d'onglets en javascript
Description Trackers Files Comments Download


General
Complete name                  : Mercury (2018) 720p HDRip [Hindi + English + Telugu + Tamil + Malayalam] x264 AAC by Full4movies.mkv
Format                         : Matroska
Format version                 : Version 4 / Version 2
File size                      : 1.04 GiB
Duration                       : 1 h 46 min
Overall bit rate               : 1 399 kb/s
Movie name                     : Mercury (2018) - www.Full4movies.co
Encoded date                   : UTC 2018-05-25 17:21:04
Writing application            : mkvmerge v8.1.0 ('Psychedelic Postcard') 32bit
Writing library                : libebml v1.3.1 + libmatroska v1.4.2

Video
ID                             : 1
Format                         : AVC
Format/Info                    : Advanced Video Codec
Format profile                 : [email protected]
Format settings, CABAC         : Yes
Format settings, RefFrames     : 5 frames
Codec ID                       : V_MPEG4/ISO/AVC
Duration                       : 1 h 46 min
Bit rate                       : 1 280 kb/s
Width                          : 1 280 pixels
Height                         : 720 pixels
Display aspect ratio           : 16:9
Frame rate mode                : Constant
Frame rate                     : 25.000 FPS
Color space                    : YUV
Chroma subsampling             : 4:2:0
Bit depth                      : 8 bits
Scan type                      : Progressive
Bits/(Pixel*Frame)             : 0.056
Stream size                    : 964 MiB (91%)
Writing library                : x264 core 148 r2643 5c65704
Default                        : Yes
Forced                         : No

Audio
ID                             : 2
Format                         : AAC
Format/Info                    : Advanced Audio Codec
Format profile                 : LC
Codec ID                       : A_AAC
Duration                       : 1 h 46 min
Bit rate                       : 126 kb/s
Channel(s)                     : 2 channels
Channel positions              : Front: L R
Sampling rate                  : 44.1 kHz
Frame rate                     : 43.066 FPS (1024 SPF)
Compression mode               : Lossy
Delay relative to video        : -23 ms
Stream size                    : 95.5 MiB (9%)
Language                       : English
Default                        : Yes
Forced                         : No

Screen Shoots


Similar Torrents
Type Name Size Added S L
Video [RealityKings] Carolina Sweets, Cadey Mercury - Hi...
303.54 MB 2018-06-16 15:50:14 2761 247
Non-English Mercury (2018) HDRip [Hindi + Telugu + Tamil + Mal...
484.52 MB 2018-05-24 20:55:39 2082 1419
Video RoccoSiffredi 18 10 13 Jia Lissa And Lina Mercury ...
435.53 MB 2018-10-13 08:16:12 1410 291
Video RoccoSiffredi 18 11 15 Frida Sante And Lina Mercur...
462.70 MB 2018-11-15 09:12:23 1266 359
Video AnalTeenAngels 19 01 08 Lina Mercury Tight Butt 4...
191.58 MB 2019-01-08 08:39:30 1239 300
Video 21EroticAnal 19 01 19 Lina Mercury Black Lace Temp...
186.73 MB 2019-01-19 10:11:13 1178 373
Video Queen - The Freddie Mercury story (2007) [DVD5 NTS...
3.37 GB 2019-02-02 11:04:50 650 381
Video [WoodmanCastingX] Lina Mercury - XXXX - My first D...
378.06 MB 2019-05-12 15:12:23 541 82
Video RoccoSiffredi 19 01 03 Lina Mercury 480p MP4-XXX
277.92 MB 2019-01-03 07:53:46 540 120
Video FitnessRooms 19 04 25 Cristal Caitlin And Lina Mer...
251.91 MB 2019-04-25 19:14:10 504 406

Loading...


Trackers:
udp://tracker.coppersurfer.tk:6969/announce

Mercury (2018) 720p HDRip [Hindi + English + Telugu + Tamil + Malayalam] x264 AAC by Full4movies
Files
Mercury (2018) 720p HDRip [Hindi + English + Telugu + Tamil + Malayalam] x264 AAC by Full4movies.mkv (1.04 GB)


Comments:
No comments still posted
Loading...
Powered by TT | Page Generated In 0.139930 secs.
| RSS Feed | Feed Info