[Login] or [Signup]

First Cams

Xvid/x264



Non-English

Loading...

X-Men (2000).720p.H264.italian.english.Ac3-5.1.sub.ita.eng-MIRCrew


Complete Name :X-Men (2000).720p.H264.italian.english.Ac3-5.1.sub.ita.eng-MIRCrew
Download torrent:    X-Men (2000).720p.H264.italian.english.Ac3-5.1.sub.ita.eng-MIRCrew.torrent
Info Hash:fca17158dddd45f929dc0a7656bf7b2faa01652a
Category:Movies  > HD
Torrent language:English  
Seeds | Leech:79 | 9
Complete: 793
Health:
Total Size:1.93 GB
Downloaded:12 Times
Added By:      robbyrs
Date Added:06-12-2018 04:51:pm | Last Edit:  07-12-2018 02:24:pm

 

Main Technical Comments
X-Men (2000).720p.H264.italian.english.Ac3-5.1.sub.ita.eng-MIRCrew


NO FOUND ONLY ORIGINAL RELEASE

My release is always in double track audio italian and Original audio
for select it use VLC or dvd player home
not use wmp

X-Men (2000)

Quality MIRCrew on HD 720p da  1,9 gb







Lingua originale inglese
Paese di produzione Stati Uniti d'America
Anno 2000
Durata 104 min
Rapporto 2,35:1
Genere azione, fantascienza
Regia Bryan Singer
Soggetto Bryan Singer, Tom De Santo (dal fumetto della Marvel Comics)
Sceneggiatura David Hayter



   Hugh Jackman: Logan / Wolverine
   Patrick Stewart: Charles Xavier / Professor X
   Ian McKellen: Erik Lehnsherr / Magneto
   Famke Janssen: Jean Grey
   James Marsden: Scott Summers / Ciclope
   Halle Berry: Ororo Munroe / Tempesta
   Anna Paquin: Marie D'Ancanto / Rogue
   Rebecca Romijn: Raven Darkhölme / Mystica
   Tyler Mane: Victor Creed / Sabretooth
   Ray Park: Mortimer Toynbee / Toad
   Bruce Davison: Robert Kelly
   Matthew Sharp: Henry Gyrich
   Kevin Rushton: Stu
   Shawn Ashmore: Bobby Drake / Uomo Ghiaccio
   Daniel Cudmore: Piotr Rasputin / Colosso
   Sumela Kay: Kitty Pride / Shadowcat
   Katrina Florece: Jubilation Lee / Jubilee
   Alexander Burton: John Allerdyce / Pyro
   Rhona Shekter: Edie
   Kenneth McGregor: Jakob Lehnsherr
   Shawn Roberts: David
   Matt Weinberg: Tommy
   John E. Nelles: Owen D'Ancanto
   Donna Goodhand: Priscilla



Polonia, 1944. In un campo di concentramento, durante la seconda guerra mondiale, un ragazzo di origini ebraiche di nome Erik Lehnsherr viene separato violentemente dai suoi familiari. Si tratta di un mutante, e la sua collera arriverà a contorcere il cancello di metallo che lo separa dalla madre, trascinata all'interno del campo. Erik, disperato, è trattenuto dai soldati nazisti.



Two mutants come to a private academy for their kind whose resident superhero team must oppose a terrorist organization with similar powers.    








General
Unique ID                                : 287751696498188802764842781210656042650 (0xD87AF5FC7480B8F05685FE384836EE9A)
Complete name                            : X-Men (2000).720p.ita.eng.sub.ita.eng-MIRCrew\X-Men (2000).720p.ita.eng.sub.ita.eng-MIRCrew.mkv
Format                                   : Matroska
Format version                           : Version 4 / Version 2
File size                                : 1.93 GiB
Duration                                 : 1h 44mn
Overall bit rate                         : 2 649 Kbps
Movie name                               : MIRCrew
Encoded date                             : UTC 2018-11-12T18:15:24Z
Writing application                      : mkvmerge v26.0.0 ('In The Game') 64-bit
Writing library                          : Lavf55.12.0

Video
ID                                       : 1
Format                                   : AVC
Format/Info                              : Advanced Video Codec
Format profile                           : [email protected]
Format settings, CABAC                   : Yes
Format settings, ReFrames                : 4 frames
Codec ID                                 : V_MPEG4/ISO/AVC
Duration                                 : 1h 44mn
Bit rate                                 : 1 900 Kbps
Width                                    : 1 280 pixels
Height                                   : 544 pixels
Display aspect ratio                     : 2.35:1
Frame rate mode                          : Variable
Frame rate                               : 23.976 fps
Color space                              : YUV
Chroma subsampling                       : 4:2:0
Bit depth                                : 8 bits
Scan type                                : Progressive
Bits/(Pixel*Frame)                       : 0.114
Stream size                              : 1.33 GiB (69%)
Title                                    : MIRCrew
Writing library                          : x264 core 142 r2479 dd79a61
Encoding settings                        : cabac=1 / ref=3 / deblock=1:0:0 / analyse=0x3:0x113 / me=hex / subme=7 / psy=1 / psy_rd=1.00:0.00 / mixed_ref=1 / me_range=16 / chroma_me=1 / trellis=1 / 8x8dct=1 / cqm=0 / deadzone=21,11 / fast_pskip=1 / chroma_qp_offset=-2 / threads=6 / lookahead_threads=1 / sliced_threads=0 / nr=0 / decimate=1 / interlaced=0 / bluray_compat=0 / constrained_intra=0 / bframes=3 / b_pyramid=2 / b_adapt=1 / b_bias=0 / direct=1 / weightb=1 / open_gop=0 / weightp=2 / keyint=240 / keyint_min=24 / scenecut=40 / intra_refresh=0 / rc_lookahead=40 / rc=abr / mbtree=1 / bitrate=1900 / ratetol=1.0 / qcomp=0.60 / qpmin=0 / qpmax=69 / qpstep=4 / vbv_maxrate=62500 / vbv_bufsize=78125 / nal_hrd=none / filler=0 / ip_ratio=1.40 / aq=1:1.00
Language                                 : Italian
Default                                  : Yes
Forced                                   : No
DURATION                                 : 01:44:20.254000000
NUMBER_OF_FRAMES                         : 150096
NUMBER_OF_BYTES                          : 1470646498
_STATISTICS_WRITING_APP                  : mkvmerge v26.0.0 ('In The Game') 64-bit
_STATISTICS_WRITING_DATE_UTC             : 2018-11-23 15:42:17
_STATISTICS_TAGS                         : BPS DURATION NUMBER_OF_FRAMES NUMBER_OF_BYTES
Color primaries                          : BT.709-5, BT.1361, IEC 61966-2-4, SMPTE RP177
Transfer characteristics                 : BT.709-5, BT.1361
Matrix coefficients                      : BT.709-5, BT.1361, IEC 61966-2-4 709, SMPTE RP177

Audio #1
ID                                       : 2
Format                                   : AC-3
Format/Info                              : Audio Coding 3
Mode extension                           : CM (complete main)
Codec ID                                 : A_AC3
Duration                                 : 1h 44mn
Bit rate mode                            : Constant
Bit rate                                 : 384 Kbps
Channel(s)                               : 6 channels
Channel positions                        : Front: L C R, Side: L R, LFE
Sampling rate                            : 48.0 KHz
Bit depth                                : 16 bits
Compression mode                         : Lossy
Delay relative to video                  : -5ms
Stream size                              : 287 MiB (14%)
Title                                    : Ita Ac3 5.1
Language                                 : Italian
Default                                  : Yes
Forced                                   : No
DURATION                                 : 01:44:20.320000000
NUMBER_OF_FRAMES                         : 195635
NUMBER_OF_BYTES                          : 300495360
_STATISTICS_WRITING_APP                  : mkvmerge v26.0.0 ('In The Game') 64-bit
_STATISTICS_WRITING_DATE_UTC             : 2018-11-23 15:42:17
_STATISTICS_TAGS                         : BPS DURATION NUMBER_OF_FRAMES NUMBER_OF_BYTES

Audio #2
ID                                       : 3
Format                                   : AC-3
Format/Info                              : Audio Coding 3
Mode extension                           : CM (complete main)
Codec ID                                 : A_AC3
Duration                                 : 1h 44mn
Bit rate mode                            : Constant
Bit rate                                 : 384 Kbps
Channel(s)                               : 6 channels
Channel positions                        : Front: L C R, Side: L R, LFE
Sampling rate                            : 48.0 KHz
Bit depth                                : 16 bits
Compression mode                         : Lossy
Delay relative to video                  : -5ms
Stream size                              : 287 MiB (14%)
Title                                    : Eng Ac3 5.1
Language                                 : English
Default                                  : No
Forced                                   : No
DURATION                                 : 01:44:20.320000000
NUMBER_OF_FRAMES                         : 195635
NUMBER_OF_BYTES                          : 300495360
_STATISTICS_WRITING_APP                  : mkvmerge v26.0.0 ('In The Game') 64-bit
_STATISTICS_WRITING_DATE_UTC             : 2018-11-23 15:42:17
_STATISTICS_TAGS                         : BPS DURATION NUMBER_OF_FRAMES NUMBER_OF_BYTES

Menu
00:00:00.000                             : :Main Titles
00:01:19.496                             : :Security Breach
00:04:18.341                             : :Alkali Lake
00:05:56.230                             : :The Field Trip
00:07:56.142                             : :Stryker's War
00:09:24.021                             : :Logan's Return
00:11:37.780                             : :One Final Talk
00:14:38.586                             : :The Mutant Connection
00:18:01.747                             : :Mutant Intruder
00:20:49.915                             : :Nightcrawler
00:22:09.411                             : :Sleepless
00:23:58.770                             : :Magneto's Visitor
00:28:46.182                             : :The War Has Begun
00:29:55.460                             : :The Invaders
00:32:06.674                             : :Out of the Past
00:33:37.807                             : :Grace
00:36:37.361                             : :Stryker's Prisoner
00:38:25.261                             : :The Drake Home
00:41:12.219                             : :Too Much Iron
00:44:14.193                             : :This Mutant Problem
00:45:50.706                             : :Faith & Anger
00:48:41.627                             : :Dangerous Mutants
00:50:22.769                             : :Air Attack
00:52:06.164                             : :Stryker's Plan
00:54:58.461                             : :What Do You Want?
00:58:11.321                             : :The Mutant Inside
00:59:20.014                             : :Time to Find Our Friends
01:01:55.294                             : :Lover's Quarrel
01:03:17.835                             : :Point of Origin
01:06:02.541                             : :Two of a Kind
01:08:40.115                             : :Change of Plans
01:12:21.628                             : :An Animal
01:18:04.137                             : :To Stop Cerebro
01:20:53.515                             : :The Big Chill
01:24:28.188                             : :Escape
01:26:58.629                             : :The Only Way
01:29:08.634                             : :The President's Opportunity
01:31:47.501                             : :Left Behind
01:33:13.003                             : :Evolution Leaps Forward
01:35:12.456                             : :End Titles


........................................................................


Loading...


Trackers:
udp://tracker.coppersurfer.tk:6969/announce

X-Men (2000).720p.H264.italian.english.Ac3-5.1.sub.ita.eng-MIRCrew
Files
by MIRCrew.txt67.00 B
X-Men (2000).720p.ita.eng.sub.ita.eng-MIRCrew.eng.srt55.76 kB
X-Men (2000).720p.ita.eng.sub.ita.eng-MIRCrew.ita.srt54.65 kB
X-Men (2000).720p.ita.eng.sub.ita.eng-MIRCrew.mkv1.93 GB
X-Men (2000).720p.ita.eng.sub.ita.eng-MIRCrew.srt1.00 kB


Similar Torrents
Type Name Size Added S L
Dubs/Dual Audio X-Men (2000-2018) All 11 Movies Hindi Collection 7...
17.32 GB 2018-10-04 20:10:58 172 772

Comments:
No comments still posted
Loading...
Powered by TT | Page Generated In 0.052536 secs.
| RSS Feed | Feed Info