[Login] or [Signup]

First Cams

Xvid/x264



Non-English

Loading...

Dil Juunglee (2018) Hindi 720p WEB-HD x264 AC3-Sun George


Complete Name :Dil Juunglee (2018) Hindi 720p WEB-HD x264 AC3-Sun George
Download torrent:    Dil Juunglee (2018) Hindi 720p WEB-HD x264 AC3-Sun George.torrent
Info Hash:dab44eeadf40d73273561efbc4372708dc1fbc0c
Category:Movies  > HD
Torrent language:Hindi  
Seeds | Leech:825 | 1,434
Complete: 1,440
Health:
Total Size:1.53 GB
Downloaded:17 Times
Added By:      sungeorge
Date Added:06-12-2018 11:44:am | Last Edit:  07-12-2018 09:45:am

 

IMDB
Dil Juunglee
Dil Juunglee Released 09 Mar 2018

Genre Comedy, Romance

Director Aleya Sen

Writer Surabhi Bhatnagar, Aleya Sen, Aleya Sen, Tonoya sen Sharma (screenplay), Shiv Singh (screenplay), Shiv Singh (screenplay)

Actors Tapsee Pannu, Saqib Saleem, Nidhi Singh, Srishti Shrivastava

Plot The movie is a romantic comedy that displays the ups and downs in Sumit and Karol's relationship.

Link https://www.imdb.com/title/tt6071752/

Last Updated 13-12-2018 16:21:19
5.0

Votes 158

Main Technical Comments
Dil Juunglee (2018) Hindi 720p WEB-HD x264 AC3-Sun George


https://www.imdb.com/title/tt6071752/







===================================================================

General
Format                                   : Matroska
Format version                           : Version 4 / Version 2
File size                                : 1.49 GiB
Duration                                 : 1 h 56 min
Overall bit rate                         : 1 823 kb/s
Movie name : Dil Juunglee (2018) Hindi 720p WEB-HD x264 AC3-Sun George

===================================================================

Video
ID                                       : 1
Format                                   : AVC
Format/Info                              : Advanced Video Codec
Format profile                           : [email protected]
Format settings                          : CABAC / 5 Ref Frames
Format settings, CABAC                   : Yes
Format settings, RefFrames               : 5 frames
Codec ID                                 : V_MPEG4/ISO/AVC
Duration                                 : 1 h 56 min
Bit rate                                 : 1 650 kb/s
Width                                    : 1 280 pixels
Height                                   : 720 pixels
Display aspect ratio                     : 16:9
Frame rate mode                          : Constant
Frame rate                               : 25.000 FPS
Color space                              : YUV
Chroma subsampling                       : 4:2:0
Bit depth                                : 8 bits
Scan type                                : Progressive
Bits/(Pixel*Frame)                       : 0.072
Stream size                              : 1.33 GiB (90%)
Title                                    : Sun George

===================================================================

Audio
ID                                       : 2
Format                                   : AC-3
Format/Info                              : Audio Coding 3
Codec ID                                 : A_AC3
Duration                                 : 1 h 54 min
Bit rate mode                            : Constant
Bit rate                                 : 192 kb/s
Channel(s)                               : 2 channels
Channel positions                        : Front: L R
Sampling rate                            : 48.0 kHz
Frame rate                               : 31.250 FPS (1536 SPF)
Bit depth                                : 16 bits
Compression mode                         : Lossy
Stream size                              : 157 MiB (10%)
Title                                    : Sun George
Language                                 : Hindi
Service kind                             : Complete Main
Default                                  : Yes
Forced                                   : No












........................................................................


Loading...


Trackers:
udp://tracker.pirateparty.gr:6969/announce

This Torrent also has backup trackers
URLSeedersLeechersCompleted
https://tracker.fastdownload.xyz:443/announce000
http://retracker.telecom.by:80/announce000
https://seeders-paradise.org:443/announce000
http://share.camoe.cn:8080/announce000

Dil Juunglee (2018) Hindi 720p WEB-HD x264 AC3-Sun George
Files
Dil Juunglee (2018) Hindi 720p WEB-HD x264 AC3-Sun George.mkv1.49 GB
INFO.NFO55.00 B
Sample Dil Juunglee (2018) Hindi 720p WEB-HD x264 AC3-Sun George.mkv44.11 MB


Similar Torrents
Type Name Size Added S L
HD Dil Juunglee (2018) Hindi 720p HDRip x264 AAC - Do...
913.30 MB 2018-12-05 01:49:56 921 1020
Non-English Dil Juunglee 2018 WebRip Hindi 720p x264 AAC - mkv...
988.83 MB 2018-12-05 08:36:48 903 928
HD Dil Juunglee 2018 x264 720p Esub Zee5 Hindi GOPIS...
663.30 MB 2018-12-06 10:04:03 89 52
h.264/x264 Dil Juunglee.2018.x264.720p.WEBRip.AC3-[Cinemkv]@T...
1,023.83 MB 2018-12-05 15:54:22 27 1

Comments:
No comments still posted
Loading...
Powered by TT | Page Generated In 0.578299 secs.
| RSS Feed | Feed Info