[Login] or [Signup]

First Cams

Xvid/x264



Non-English

Loading...

Dil Juunglee 2018 x264 720p Esub Zee5 Hindi GOPISAHI


Complete Name : Dil Juunglee 2018 x264 720p Esub Zee5 Hindi GOPISAHI
Download torrent:     Dil Juunglee 2018 x264 720p Esub Zee5 Hindi GOPISAHI.torrent
Info Hash:999cc7479058de11d1d1e872875612162d860e63
Category:Movies  > HD
Torrent language:Hindi  
Seeds | Leech:89 | 52
Complete: 537
Health:
Total Size:663.30 MB
Downloaded:12 Times
Added By:      GOPISAHI
Date Added:06-12-2018 10:04:am | Last Edit:  07-12-2018 06:32:am

 

Main Technical Comments
https://www.gopisahi.pw/


Format                         : Matroska
Format version                 : Version 4 / Version 2
File size                      : 663 MiB
Duration                       : 1 h 56 min
Overall bit rate               : 797 kb/s
Movie name                     : Dil Juunglee 2018 GOPISAHI

Video
Format                         : AVC
Codec ID                       : V_MPEG4/ISO/AVC
Duration                       : 1 h 56 min
Bit rate                       : 699 kb/s
Width                          : 1 280 pixels
Height                         : 538 pixels
Display aspect ratio           : 2.40:1
Frame rate mode                : Constant
Frame rate                     : 23.976 (24000/1001) FPS
Color space                    : YUV
Chroma subsampling             : 4:2:0
Bit depth                      : 8 bits
Scan type                      : Progressive
Bits/(Pixel*Frame)             : 0.042
Stream size                    : 581 MiB (88%)
Title                          : GOPISAHI
Writing library                : x264 core 155 r2901 7d0ff22

Audio
Format                         : AAC
Duration                       : 1 h 56 min
Bit rate                       : 96.0 kb/s
Channel(s)                     : 2 channels
Channel positions              : Front: L R
Sampling rate                  : 48.0 kHz
Frame rate                     : 46.875 FPS (1024 SPF)
Compression mode               : Lossy
Delay relative to video        : 5 ms
Stream size                    : 80.1 MiB (12%)
Title                          : GOPISAHI
Language                       : Hindi


........................................................................


Loading...


Trackers:
udp://tracker.coppersurfer.tk:6969/announce

Dil Juunglee 2018 x264 720p Esub Zee5 Hindi GOPISAHI
Files
Dil Juunglee 2018 x264 720p Esub Zee5 Hindi GOPISAHI.mkv663.30 MB


Comments:
No comments still posted
Loading...
Powered by TT | Page Generated In 0.051419 secs.
| RSS Feed | Feed Info