[Login] or [Signup]

First Cams

Xvid/x264



Non-English

Loading...

Jaane Kyun De Yaaron 2018 x264 720p HD Esub Hindi GOPISAHI


Complete Name : Jaane Kyun De Yaaron 2018 x264 720p HD Esub Hindi GOPISAHI
Download torrent:     Jaane Kyun De Yaaron 2018 x264 720p HD Esub Hindi GOPISAHI.torrent
Info Hash:1ae0f616d7c93eedc974f5c3b073922c93a1cb8a
Category:Movies  > HD
Torrent language:Hindi  
Seeds | Leech:125 | 49
Complete: 676
Health:
Total Size:697.53 MB
Downloaded:14 Times
Added By:      GOPISAHI
Date Added:06-12-2018 04:36:am | Last Edit:  06-12-2018 09:42:pm

 

IMDB
Jaane kyun de yaaron
Jaane kyun de yaaron Released 19 Jan 2018

Genre Drama

Director Akshay Anand

Writer Akshay Anand, Ajit Rajpal

Actors Akshay Anand, Kabir Bedi, Hitesh Bhardwaj, Abhay Bhargav

Plot Two boys with the dreams to change their ordinary lives change the entire corruption system as they take a stand against police brutality with the little help of a benevolent guardian.

Link http://www.imdb.com/title/tt7720254

Last Updated 13-12-2018 16:08:23

Main Technical Comments
https://www.gopisahi.pw/

Format                         : Matroska
Format version                 : Version 4 / Version 2
File size                      : 698 MiB
Duration                       : 2 h 2 min
Overall bit rate               : 798 kb/s
Movie name                     : Jaane Kyun De Yaaron 2018 GOPISAHI

Video
Format                         : AVC
Format/Info                    : Advanced Video Codec
Codec ID                       : V_MPEG4/ISO/AVC
Duration                       : 2 h 2 min
Bit rate                       : 699 kb/s
Width                          : 1 280 pixels
Height                         : 544 pixels
Display aspect ratio           : 2.35:1
Frame rate mode                : Constant
Frame rate                     : 25.000 FPS
Color space                    : YUV
Chroma subsampling             : 4:2:0
Bit depth                      : 8 bits
Scan type                      : Progressive
Bits/(Pixel*Frame)             : 0.040
Stream size                    : 611 MiB (88%)
Title                          : GOPISAHI
Writing library                : x264 core 155 r2901 7d0ff22

Audio
Format                         : AAC
Duration                       : 2 h 2 min
Bit rate                       : 96.0 kb/s
Channel(s)                     : 2 channels
Channel positions              : Front: L R
Sampling rate                  : 48.0 kHz
Frame rate                     : 46.875 FPS (1024 SPF)
Compression mode               : Lossy
Delay relative to video        : -21 ms
Stream size                    : 84.2 MiB (12%)
Title                          : GOPISAHI
Language                       : Hindi

Text
Language                       : English


........................................................................


Loading...


Trackers:
udp://tracker.coppersurfer.tk:6969/announce

Jaane Kyun De Yaaron 2018 x264 720p HD Esub Hindi GOPISAHI
Files
Jaane Kyun De Yaaron 2018 x264 720p HD Esub Hindi GOPISAHI.mkv697.53 MB


Comments:
No comments still posted
Loading...
Powered by TT | Page Generated In 0.605009 secs.
| RSS Feed | Feed Info