[Login] or [Signup]

First Cams

Xvid/x264



Non-English

Loading...

Pope Francis: A Man of His Word - Papa Francesco - Un uomo di parola (2018).720p.H264.italian.Ac3-5....


Complete Name :Pope Francis: A Man of His Word - Papa Francesco - Un uomo di parola (2018).720p.H264.italian.Ac3-5.1.sub.ita.NUita.eng-MIRCrew
Download torrent:    Pope Francis: A Man of His Word - Papa Francesco - Un uomo di parola (2018).720p.H264.italian.Ac3-5.....torrent
Info Hash:8fafe1a41dea4426a0feed2633173ce3eb0e54a6
Category:Movies  > HD
Torrent language:Italian  
Seeds | Leech:284 | 105
Complete: 2,725
Health:
Total Size:1.48 GB
Downloaded:10 Times
Added By:      robbyrs
Date Added:16-11-2018 06:50:pm | Last Edit:  17-11-2018 11:36:pm

 

Main Technical Comments
Pope Francis: A Man of His Word - Papa Francesco - Un uomo di parola (2018).720p.H264.italian.Ac3-5.1.sub.ita.NUita.eng-MIRCrew


NO FOUND ONLY ORIGINAL RELEASE



My release is always in double track audio italian and Original audio
for select it use VLC or dvd player home
not use wmp

ENGLISH SUBTITLE INSIDE

PRESENTI I SOTTOTITOLI ITALIANI PER NON UDENTI

Papa Francesco - Un uomo di parola - Pope Francis: A Man of His Word (2018)

Quality MIRCrew on HD 720p da  1,5 gb







GENERE: Documentario
ANNO: 2018
REGIA: Wim Wenders
PAESE: USA
DURATA: 96 Min



**************************************



Papa Francesco - Un uomo di parola, il film di Wim Wenders,  vuole essere un viaggio personale in compagnia di Papa Francesco, piĆ¹ che un documemtario biografico relativo alla sua figura. Gli ideali del Papa ed il suo messaggio sono centrali in questo documentario, che si prefigge di presentare la sua opera di riforma e le sue risposte riguardanti alcune questioni di livello globale



"Pope Francis - A Man of His Word" is intended to be a personal journey with Pope Francis, rather than a biographical documentary about him. The pope's ideas and his message are central to this documentary, which sets out to present his work of reform and his answers to today's global questions.  









General
Unique ID                                : 64250503727879583293807292626571965613 (0x3056326881C405986F57E184D77134AD)
Complete name                            : Papa Francesco - Un uomo di parola (2018).720p.h264.ita.sub.ita.NUIta-MIRCrew\Papa Francesco - Un uomo di parola (2018).720p.h264.ita.sub.ita.NUIta-MIRCrew.mkv
Format                                   : Matroska
Format version                           : Version 2
File size                                : 1.48 GiB
Duration                                 : 1h 36mn
Overall bit rate                         : 2 204 Kbps
Movie name                               : MIRCrew
Encoded date                             : UTC 2018-11-15 17:00:26
Writing application                      : Lavf54.63.100
Writing library                          : Lavf54.63.100

Video
ID                                       : 1
Format                                   : AVC
Format/Info                              : Advanced Video Codec
Format profile                           : [email protected]
Format settings, CABAC                   : Yes
Format settings, ReFrames                : 2 frames
Codec ID                                 : V_MPEG4/ISO/AVC
Duration                                 : 1h 36mn
Bit rate                                 : 1 776 Kbps
Nominal bit rate                         : 1 900 Kbps
Width                                    : 1 280 pixels
Height                                   : 688 pixels
Display aspect ratio                     : 1.853
Frame rate mode                          : Variable
Frame rate                               : 23.976 fps
Color space                              : YUV
Chroma subsampling                       : 4:2:0
Bit depth                                : 8 bits
Scan type                                : Progressive
Bits/(Pixel*Frame)                       : 0.084
Stream size                              : 1.19 GiB (81%)
Writing library                          : x264 core 130 r2273
Encoding settings                        : cabac=1 / ref=2 / deblock=1:0:0 / analyse=0x1:0x131 / me=hex / subme=7 / psy=1 / psy_rd=1.00:0.00 / mixed_ref=0 / me_range=16 / chroma_me=1 / trellis=1 / 8x8dct=0 / cqm=0 / deadzone=21,11 / fast_pskip=1 / chroma_qp_offset=-2 / threads=6 / lookahead_threads=1 / sliced_threads=0 / nr=0 / decimate=1 / interlaced=0 / bluray_compat=0 / constrained_intra=0 / bframes=3 / b_pyramid=0 / b_adapt=1 / b_bias=0 / direct=3 / weightb=1 / open_gop=0 / weightp=2 / keyint=230 / keyint_min=23 / scenecut=40 / intra_refresh=0 / rc_lookahead=40 / rc=abr / mbtree=1 / bitrate=1900 / ratetol=1.0 / qcomp=0.60 / qpmin=10 / qpmax=69 / qpstep=4 / vbv_maxrate=24000 / vbv_bufsize=24000 / nal_hrd=none / ip_ratio=1.40 / aq=1:1.00
Language                                 : Italian
Default                                  : Yes
Forced                                   : No
DURATION                                 : 01:36:16.938000000
NUMBER_OF_FRAMES                         : 138508
NUMBER_OF_BYTES                          : 6991560808
_STATISTICS_WRITING_APP                  : mkvmerge v9.7.1 ('Pandemonium') 64bit
_STATISTICS_WRITING_DATE_UTC             : 2018-11-13 12:06:19
_STATISTICS_TAGS                         : BPS DURATION NUMBER_OF_FRAMES NUMBER_OF_BYTES

Audio
ID                                       : 2
Format                                   : AC-3
Format/Info                              : Audio Coding 3
Mode extension                           : CM (complete main)
Codec ID                                 : A_AC3
Duration                                 : 1h 36mn
Bit rate mode                            : Constant
Bit rate                                 : 384 Kbps
Channel(s)                               : 6 channels
Channel positions                        : Front: L C R, Side: L R, LFE
Sampling rate                            : 48.0 KHz
Bit depth                                : 16 bits
Compression mode                         : Lossy
Delay relative to video                  : 1mn 5s
Stream size                              : 264 MiB (17%)
Language                                 : Italian
Default                                  : No
Forced                                   : No
DURATION                                 : 01:36:17.600000000
NUMBER_OF_FRAMES                         : 180550
NUMBER_OF_BYTES                          : 462208000
_STATISTICS_WRITING_APP                  : mkvmerge v9.7.1 ('Pandemonium') 64bit
_STATISTICS_WRITING_DATE_UTC             : 2018-11-13 12:06:19
_STATISTICS_TAGS                         : BPS DURATION NUMBER_OF_FRAMES NUMBER_OF_BYTES

Menu
00:00:00.000                             : :(01)00:00:00:000
00:05:23.323                             : :(02)00:05:23:323
00:11:03.746                             : :(03)00:11:03:746
00:15:36.477                             : :(04)00:15:36:477
00:20:58.131                             : :(05)00:20:58:131
00:25:20.477                             : :(06)00:25:20:477
00:28:57.110                             : :(07)00:28:57:110
00:32:41.042                             : :(08)00:32:41:042
00:37:16.817                             : :(09)00:37:16:817
00:41:31.447                             : :(10)00:41:31:447
00:46:37.252                             : :(11)00:46:37:252
00:53:53.396                             : :(12)00:53:53:396
00:59:20.390                             : :(13)00:59:20:390
01:03:05.948                             : :(14)01:03:05:948
01:08:14.048                             : :(15)01:08:14:048
01:13:08.675                             : :(16)01:13:08:675
01:17:53.168                             : :(17)01:17:53:168
01:21:14.953                             : :(18)01:21:14:953
01:26:20.466                             : :(19)01:26:20:466
01:32:18.533                             : :(20)01:32:18:533
01:36:17.354                             : :(21)01:36:17:354

........................................................................


Loading...


Trackers:
udp://tracker.coppersurfer.tk:6969/announce

Pope Francis: A Man of His Word - Papa Francesco - Un uomo di parola (2018).720p.H264.italian.Ac3-5.1.sub.ita.NUita.eng-MIRCrew
Files
Papa Francesco - Un uomo di parola (2018).720p.h264.ita.sub.ita.NUIta-MIRCrew.eng.srt88.10 kB
Papa Francesco - Un uomo di parola (2018).720p.h264.ita.sub.ita.NUIta-MIRCrew.ita.srt51.55 kB
Papa Francesco - Un uomo di parola (2018).720p.h264.ita.sub.ita.NUIta-MIRCrew.mkv1.48 GB
Papa Francesco - Un uomo di parola (2018).720p.h264.ita.sub.ita.NUIta-MIRCrew.NUita.srt65.99 kB
Papa Francesco - Un uomo di parola (2018).720p.h264.ita.sub.ita.NUIta-MIRCrew.srt2.09 kB


Similar Torrents
Type Name Size Added S L
h.264/x264 Pope.Francis.A.Man.of.His.Word.2018.BDRip.x264-VET...
810.93 MB 2018-11-06 22:13:54 79 23
h.264/x264 Pope.Francis.A.Man.of.His.Word.2018.720p.BluRay.x2...
4.42 GB 2018-11-06 22:08:09 54 4
h.264/x264 Pope.Francis.A.Man.of.His.Word.2018.LiMiTED.PROPER...
4.52 GB 2018-11-23 14:53:45 53 0
HD Pope.Francis.A.Man.of.His.Word.2018.1080p.BluRay.x...
6.73 GB 2018-11-06 22:05:54 34 28

Comments:
No comments still posted
Loading...
Powered by TT | Page Generated In 0.051874 secs.
| RSS Feed | Feed Info