[Login] or [Signup]

First Cams

Xvid/x264



Non-English

Loading...

Serena - Una folle passione (2014).720p.H264.italian.english.Ac3-5.1.sub.NUita.eng-MIRCrew


Complete Name :Serena - Una folle passione (2014).720p.H264.italian.english.Ac3-5.1.sub.NUita.eng-MIRCrew
Download torrent:    Serena - Una folle passione (2014).720p.H264.italian.english.Ac3-5.1.sub.NUita.eng-MIRCrew.torrent
Info Hash:9af03170d717f3d07f2c62c07e879efb72883a15
Category:Movies  > HD
Torrent language:English  
Seeds | Leech:219 | 61
Complete: 2,106
Health:
Total Size:2.42 GB
Downloaded:12 Times
Added By:      robbyrs
Date Added:12-11-2018 06:14:pm | Last Edit:  14-11-2018 01:10:am

 

Main Technical Comments
Serena - Una folle passione (2014).720p.H264.italian.english.Ac3-5.1.sub.NUita.eng-MIRCrew


NO FOUND ONLY ORIGINAL RELEASE



My release is always in double track audio italian and Original audio
for select it use VLC or dvd player home
not use wmp

SOTTOTITOLI ITALIANI PER NON UDENTI INCLUSI

Una folle passione - Serena (2014)

Quality MIRCrew on HD 720p da  2,4 gb







GENERE: Drammatico, Sentimentale
ANNO: 2014
REGIA: Susanne Bier
PAESE: USA
DURATA: 109 Min



Jennifer Lawrence, Bradley Cooper, Rhys Ifans, Toby Jones, Sean Harris, David Dencik, Kim Bodnia, Blake Ritson, Sam Reid, Ned Dennehy, Ana Ularu



George Pemberton รจ un barone del legno nell'America di fine anni Venti. Lasciate per un viaggio da affari le montagne del North Carolina, incontra Serena, una giovane donna con un passato tragico e il desiderio di appartenere a qualcuno nel presente. Innamorati e decisi a condividere insieme il resto della loro vita, George e Serena si sposano e si impegnano ad accrescere il loro impero.



In Depression-era North Carolina, the future of George Pemberton's timber empire becomes complicated when he marries Serena.  








General
Unique ID                                : 124166540730914296911437876598423461108 (0x5D699B1B81A42614DF7C00FDB8589CF4)
Complete name                            : Serena (2014).720p.h254.ita.eng.sub.NUita.eng-MIRCrew\Serena (2014).720p.h254.ita.eng.sub.ita.eng-MIRCrew.mkv
Format                                   : Matroska
Format version                           : Version 4 / Version 2
File size                                : 2.42 GiB
Duration                                 : 1h 50mn
Overall bit rate                         : 3 146 Kbps
Movie name                               : MIRCrew
Encoded date                             : UTC 2018-11-08 17:43:58
Writing application                      : mkvmerge v26.0.0 ('In The Game') 64-bit
Writing library                          : Lavf54.63.100

Video
ID                                       : 1
Format                                   : AVC
Format/Info                              : Advanced Video Codec
Format profile                           : [email protected]
Format settings, CABAC                   : Yes
Format settings, ReFrames                : 2 frames
Codec ID                                 : V_MPEG4/ISO/AVC
Duration                                 : 1h 50mn
Bit rate                                 : 2 187 Kbps
Width                                    : 1 280 pixels
Height                                   : 528 pixels
Display aspect ratio                     : 2.40:1
Frame rate mode                          : Variable
Frame rate                               : 23.976 fps
Color space                              : YUV
Chroma subsampling                       : 4:2:0
Bit depth                                : 8 bits
Scan type                                : Progressive
Bits/(Pixel*Frame)                       : 0.135
Stream size                              : 1.68 GiB (70%)
Title                                    : MIRCrew
Writing library                          : x264 core 130 r2273
Encoding settings                        : cabac=1 / ref=2 / deblock=1:0:0 / analyse=0x1:0x131 / me=hex / subme=7 / psy=1 / psy_rd=1.00:0.00 / mixed_ref=0 / me_range=16 / chroma_me=1 / trellis=1 / 8x8dct=0 / cqm=0 / deadzone=21,11 / fast_pskip=1 / chroma_qp_offset=-2 / threads=6 / lookahead_threads=1 / sliced_threads=0 / nr=0 / decimate=1 / interlaced=0 / bluray_compat=0 / constrained_intra=0 / bframes=3 / b_pyramid=0 / b_adapt=1 / b_bias=0 / direct=3 / weightb=1 / open_gop=0 / weightp=2 / keyint=230 / keyint_min=23 / scenecut=40 / intra_refresh=0 / rc=cqp / mbtree=0 / qp=20 / ip_ratio=1.40 / pb_ratio=1.30 / aq=0
Language                                 : Italian
Default                                  : Yes
Forced                                   : No
DURATION                                 : 01:50:08.185000000
NUMBER_OF_FRAMES                         : 158438
NUMBER_OF_BYTES                          : 1856720328
_STATISTICS_WRITING_APP                  : mkvmerge v26.0.0 ('In The Game') 64-bit
_STATISTICS_WRITING_DATE_UTC             : 2018-11-11 17:14:01
_STATISTICS_TAGS                         : BPS DURATION NUMBER_OF_FRAMES NUMBER_OF_BYTES

Audio #1
ID                                       : 2
Format                                   : AC-3
Format/Info                              : Audio Coding 3
Mode extension                           : CM (complete main)
Codec ID                                 : A_AC3
Duration                                 : 1h 50mn
Bit rate mode                            : Constant
Bit rate                                 : 448 Kbps
Channel(s)                               : 6 channels
Channel positions                        : Front: L C R, Side: L R, LFE
Sampling rate                            : 48.0 KHz
Bit depth                                : 16 bits
Compression mode                         : Lossy
Delay relative to video                  : -5ms
Stream size                              : 353 MiB (14%)
Title                                    : Ita Ac3 5.1
Language                                 : Italian
Default                                  : Yes
Forced                                   : No
DURATION                                 : 01:50:06.304000000
NUMBER_OF_FRAMES                         : 206447
NUMBER_OF_BYTES                          : 369953024
_STATISTICS_WRITING_APP                  : mkvmerge v26.0.0 ('In The Game') 64-bit
_STATISTICS_WRITING_DATE_UTC             : 2018-11-11 17:14:01
_STATISTICS_TAGS                         : BPS DURATION NUMBER_OF_FRAMES NUMBER_OF_BYTES

Audio #2
ID                                       : 3
Format                                   : AC-3
Format/Info                              : Audio Coding 3
Mode extension                           : CM (complete main)
Codec ID                                 : A_AC3
Duration                                 : 1h 50mn
Bit rate mode                            : Constant
Bit rate                                 : 448 Kbps
Channel(s)                               : 6 channels
Channel positions                        : Front: L C R, Side: L R, LFE
Sampling rate                            : 48.0 KHz
Bit depth                                : 16 bits
Compression mode                         : Lossy
Delay relative to video                  : -5ms
Stream size                              : 353 MiB (14%)
Title                                    : Eng Ac3 5.1
Language                                 : English
Default                                  : No
Forced                                   : No
DURATION                                 : 01:50:08.096000000
NUMBER_OF_FRAMES                         : 206503
NUMBER_OF_BYTES                          : 370053376
_STATISTICS_WRITING_APP                  : mkvmerge v26.0.0 ('In The Game') 64-bit
_STATISTICS_WRITING_DATE_UTC             : 2018-11-11 17:14:01
_STATISTICS_TAGS                         : BPS DURATION NUMBER_OF_FRAMES NUMBER_OF_BYTES

Menu
00:00:00.000                             : :00:00:00.000
00:10:56.043                             : :00:10:56.043
00:21:51.990                             : :00:21:51.990
00:30:04.524                             : :00:30:04.524
00:41:47.643                             : :00:41:47.643
00:52:07.762                             : :00:52:07.762
00:59:01.926                             : :00:59:01.926
01:09:41.732                             : :01:09:41.732
01:22:25.161                             : :01:22:25.161
01:33:21.900                             : :01:33:21.900

........................................................................


Loading...


Trackers:
udp://tracker.coppersurfer.tk:6969/announce

Serena - Una folle passione (2014).720p.H264.italian.english.Ac3-5.1.sub.NUita.eng-MIRCrew
Files
by MIRCrew.txt67.00 B
Serena (2014).720p.h254.ita.eng.sub.ita.eng-MIRCrew.eng.srt53.22 kB
Serena (2014).720p.h254.ita.eng.sub.ita.eng-MIRCrew.mkv2.42 GB
Serena (2014).720p.h254.ita.eng.sub.ita.eng-MIRCrew.NUita.srt48.30 kB
Serena (2014).720p.h254.ita.eng.sub.ita.eng-MIRCrew.srt111.00 B


Comments:
No comments still posted
Loading...
Powered by TT | Page Generated In 0.051885 secs.
| RSS Feed | Feed Info