[Login] or [Signup]

First Cams

Xvid/x264



Non-English

Loading...

Gnome Alone - Mamma ho scoperto gli gnomi (2017).720p.H264.italian.english.Ac3-5.1-MIRCrew


Complete Name :Gnome Alone - Mamma ho scoperto gli gnomi (2017).720p.H264.italian.english.Ac3-5.1-MIRCrew
Download torrent:    Gnome Alone - Mamma ho scoperto gli gnomi (2017).720p.H264.italian.english.Ac3-5.1-MIRCrew.torrent
Info Hash:514b716bfeaea8fa31c66b092cc69c9e6ffd020f
Category:Movies  > HD
Torrent language:English  
Seeds | Leech:424 | 261
Complete: 2,970
Health:
Total Size:1.51 GB
Downloaded:10 Times
Added By:      robbyrs
Date Added:12-11-2018 05:14:pm | Last Edit:  13-11-2018 09:45:pm

 

Main Technical Comments
Gnome Alone - Mamma ho scoperto gli gnomi (2017).720p.H264.italian.english.Ac3-5.1-MIRCrew


NO FOUND ONLY ORIGINAL RELEASE



My release is always in double track audio italian and Original audio
for select it use VLC or dvd player home
not use wmp

Mamma ho scoperto gli gnomi - Gnome Alone (2017)

Quality MIRCrew on HD 720p da  1,5 gb







TITOLO ORIGINALE: Gnome Alone
GENERE: Animazione
ANNO: 2017
REGIA: Peter Lepeniotis, Shelly Shenoy
PAESE: Canada
DURATA: 89' minuti



Becky G., Josh Peck, Tara Strong, Jim Cummings, Madison De La Garza, David Koechner



Ancora una volta, Chloe e sua madre sono costrette a trasferirsi. Ciò per la ragazzina significa cambiare casa e scuola e adattarsi a un mondo per lei del tutto nuovo. L'abitazione in cui vanno a vivere è abbastanza vecchia e, come se non bastasse, ha un giardino pieno di strani gnomi, che prendono letteralmente vita per salvare il mondo da una grande minaccia. Ben presto, Chloe sarà costretta a scegliere tra la vita liceale che ha sempre desiderato e il prendere parte alla battaglia degli gnomi.



When Chloe discovers that her new home's garden gnomes are not what they seem, she must decide between the pursuit of a desired high school life and taking up the fight against the Troggs.








General
Unique ID                                : 199294603242433085372710328844825401791 (0x95EEBE91E96C6A3BAF813945AEF819BF)
Complete name                            : Mamma ho scoperto gli gnomi - Gnome Alone (2017).720p.h264.ita.eng-MIRCrew\Mamma ho scoperto gli gnomi - Gnome Alone (2017).720p.h264.ita.eng-MIRCrew.mkv
Format                                   : Matroska
Format version                           : Version 2
File size                                : 1.51 GiB
Duration                                 : 1h 25mn
Overall bit rate                         : 2 540 Kbps
Movie name                               : MIRCrew
Encoded date                             : UTC 2018-10-27 18:42:20
Writing application                      : mkvmerge v5.4.0 ('Piper') built on Mar 10 2012 13:34:39
Writing library                          : Lavf54.63.100

Video
ID                                       : 1
Format                                   : AVC
Format/Info                              : Advanced Video Codec
Format profile                           : [email protected]
Format settings, CABAC                   : Yes
Format settings, ReFrames                : 2 frames
Codec ID                                 : V_MPEG4/ISO/AVC
Duration                                 : 1h 25mn
Bit rate                                 : 1 900 Kbps
Width                                    : 1 280 pixels
Height                                   : 688 pixels
Display aspect ratio                     : 16:9
Frame rate mode                          : Variable
Frame rate                               : 23.976 fps
Color space                              : YUV
Chroma subsampling                       : 4:2:0
Bit depth                                : 8 bits
Scan type                                : Progressive
Bits/(Pixel*Frame)                       : 0.090
Stream size                              : 1.10 GiB (73%)
Writing library                          : x264 core 130 r2273
Encoding settings                        : cabac=1 / ref=2 / deblock=1:0:0 / analyse=0x1:0x131 / me=hex / subme=7 / psy=1 / psy_rd=1.00:0.00 / mixed_ref=0 / me_range=16 / chroma_me=1 / trellis=1 / 8x8dct=0 / cqm=0 / deadzone=21,11 / fast_pskip=1 / chroma_qp_offset=-2 / threads=6 / lookahead_threads=1 / sliced_threads=0 / nr=0 / decimate=1 / interlaced=0 / bluray_compat=0 / constrained_intra=0 / bframes=3 / b_pyramid=0 / b_adapt=1 / b_bias=0 / direct=3 / weightb=1 / open_gop=0 / weightp=2 / keyint=230 / keyint_min=23 / scenecut=40 / intra_refresh=0 / rc_lookahead=40 / rc=abr / mbtree=1 / bitrate=1900 / ratetol=1.0 / qcomp=0.60 / qpmin=10 / qpmax=69 / qpstep=4 / vbv_maxrate=24000 / vbv_bufsize=24000 / nal_hrd=none / ip_ratio=1.40 / aq=1:1.00
Language                                 : Italian
Default                                  : Yes
Forced                                   : No
DURATION                                 : 01:25:15.527000000
NUMBER_OF_FRAMES                         : 122650
NUMBER_OF_BYTES                          : 1284296253
_STATISTICS_WRITING_APP                  : mkvmerge v9.8.0 ('Kuglblids') 32bit
_STATISTICS_WRITING_DATE_UTC             : 2018-10-27 18:42:20
_STATISTICS_TAGS                         : BPS DURATION NUMBER_OF_FRAMES NUMBER_OF_BYTES

Audio #1
ID                                       : 2
Format                                   : AC-3
Format/Info                              : Audio Coding 3
Mode extension                           : CM (complete main)
Codec ID                                 : A_AC3
Duration                                 : 1h 25mn
Bit rate mode                            : Constant
Bit rate                                 : 384 Kbps
Channel(s)                               : 6 channels
Channel positions                        : Front: L C R, Side: L R, LFE
Sampling rate                            : 48.0 KHz
Bit depth                                : 16 bits
Compression mode                         : Lossy
Delay relative to video                  : -42ms
Stream size                              : 234 MiB (15%)
Title                                    : Ita Ac3 5.1
Language                                 : Italian
Default                                  : Yes
Forced                                   : No

Audio #2
ID                                       : 3
Format                                   : AC-3
Format/Info                              : Audio Coding 3
Mode extension                           : CM (complete main)
Codec ID                                 : A_AC3
Duration                                 : 1h 25mn
Bit rate mode                            : Constant
Bit rate                                 : 256 Kbps
Channel(s)                               : 2 channels
Channel positions                        : Front: L R
Sampling rate                            : 48.0 KHz
Bit depth                                : 16 bits
Compression mode                         : Lossy
Delay relative to video                  : -42ms
Stream size                              : 156 MiB (10%)
Title                                    : Eng Ac3
Language                                 : English
Default                                  : No
Forced                                   : No

........................................................................


Loading...


Trackers:
udp://tracker.coppersurfer.tk:6969/announce

Gnome Alone - Mamma ho scoperto gli gnomi (2017).720p.H264.italian.english.Ac3-5.1-MIRCrew
Files
BY MIRCrew.txt65.00 B
Mamma ho scoperto gli gnomi - Gnome Alone (2017).720p.h264.ita.eng-MIRCrew.mkv1.51 GB


Similar Torrents
Type Name Size Added S L
Divx/Xvid Gnome.Alone.2017.HDRip.XviD.AC3-EVO
1.16 GB 2018-06-04 14:25:43 592 223
HD Gnome.Alone.2017.720p.HDRip.x264.AAC-ETRG
660.35 MB 2018-06-04 15:48:35 255 26
h.264/x264 Gnome.Alone.2017.720p.WEB-DL.DD5.1.H264-CMRG[EtHD]
2.62 GB 2018-06-04 12:23:40 103 86
h.264/x264 Gnome.Alone.2017.BDRip.XviD.AC3-EVO[EtMovies]
1.20 GB 2018-06-30 11:46:31 71 28
HD Gnome Alone 2017 1080p WEB-DL DD5 1 H264-CMRG[EtHD...
3.16 GB 2018-06-04 17:25:26 67 50
HD Gnome.Alone.2017.1080p.BluRay.x264-JustWatch[EtHD]
6.64 GB 2018-07-01 19:32:39 44 63
h.264/x264 Gnome.Alone.2017.HDRip.XviD.AC3-EVO[EtMovies]
1.16 GB 2018-06-04 18:32:27 40 28
h.264/x264 Gnome.Alone.2017.1080p.WEB-DL.x264.AC3-RiPRG
1.60 GB 2018-06-04 19:26:19 36 46
HD Gnome.Alone.2017.720p.BluRay.x264-JustWatch[EtHD]
4.43 GB 2018-06-30 09:19:27 26 13
h.264/x264 Gnome.Alone.2017.HDRip.AC3.X264-CMRG[EtMovies]
1.28 GB 2018-06-04 18:32:03 17 8

Comments:
No comments still posted
Loading...
Powered by TT | Page Generated In 0.054344 secs.
| RSS Feed | Feed Info