[Login] or [Signup]

First Cams

Xvid/x264



Non-English

Loading...

Herbie Rides Again 1974 x264 720p Esub BluRay Dual Audio English Hindi GOPISAHI


Complete Name :Herbie Rides Again 1974 x264 720p Esub BluRay Dual Audio English Hindi GOPISAHI
Download torrent:    Herbie Rides Again 1974 x264 720p Esub BluRay Dual Audio English Hindi GOPISAHI.torrent
Info Hash:39891fe0be9890e6a4a4e7a119e86c92b0709105
Category:Movies  > Dubs/Dual Audio
Torrent language:Hindi  
Seeds | Leech:41 | 37
Complete: 448
Health:
Total Size:709.67 MB
Downloaded:10 Times
Added By:      GOPISAHI
Date Added:12-11-2018 04:41:pm | Last Edit:  13-11-2018 08:27:pm

 

IMDB
Herbie Rides Again
Herbie Rides Again Released 06 Jun 1974

Genre Comedy, Family, Fantasy, Romance

Director Robert Stevenson

Writer Bill Walsh (screenplay), Gordon Buford (story)

Actors Helen Hayes, Ken Berry, Stefanie Powers, John McIntire

Plot The living Volkswagen Beetle helps an old lady protect her home from a corrupt developer.

Link http://www.imdb.com/title/tt0071607

Last Updated 17-12-2018 07:24:30
5.6

Votes 6,386

Main Technical Comments
https://www.gopisahi.pw/

Format                         : Matroska
Format version                 : Version 4 / Version 2
File size                      : 710 MiB
Duration                       : 1 h 28 min
Overall bit rate               : 1 122 kb/s
Movie name                     : Herbie Rides Again 1974 GOPISAHI

Video
Format                         : AVC
Format/Info                    : Advanced Video Codec
Codec ID                       : V_MPEG4/ISO/AVC
Duration                       : 1 h 28 min
Bit rate                       : 799 kb/s
Width                          : 1 280 pixels
Height                         : 772 pixels
Display aspect ratio           : 5:3
Frame rate mode                : Constant
Frame rate                     : 23.976 (24000/1001) FPS
Color space                    : YUV
Chroma subsampling             : 4:2:0
Bit depth                      : 8 bits
Scan type                      : Progressive
Bits/(Pixel*Frame)             : 0.034
Stream size                    : 505 MiB (71%)
Title                          : GOPISAHI
Writing library                : x264 core 155 r2901 7d0ff22

Audio #1
Format                         : AAC
Duration                       : 1 h 28 min
Bit rate                       : 160 kb/s
Channel(s)                     : 2 channels
Channel positions              : Front: L R
Sampling rate                  : 48.0 kHz
Frame rate                     : 46.875 FPS (1024 SPF)
Compression mode               : Lossy
Delay relative to video        : -21 ms
Stream size                    : 101 MiB (14%)
Title                          : GOPISAHI
Language                       : Hindi

Audio #2
Format                         : AAC
Duration                       : 1 h 28 min
Bit rate                       : 160 kb/s
Channel(s)                     : 2 channels
Channel positions              : Front: L R
Sampling rate                  : 48.0 kHz
Frame rate                     : 46.875 FPS (1024 SPF)
Compression mode               : Lossy
Delay relative to video        : -21 ms
Stream size                    : 101 MiB (14%)
Title                          : GOPISAHI
Language                       : English

Text
Language                       : English


........................................................................


Loading...


Trackers:
udp://tracker.coppersurfer.tk:6969/announce

Herbie Rides Again 1974 x264 720p Esub BluRay Dual Audio English Hindi GOPISAHI
Files
Herbie Rides Again 1974 x264 720p Esub BluRay Dual Audio English Hindi GOPISAHI.mkv709.67 MB


Comments:
No comments still posted
Loading...
Powered by TT | Page Generated In 0.590673 secs.
| RSS Feed | Feed Info