[Login] or [Signup]

First Cams

Xvid/x264



Non-English

Loading...

The Meg - Shark - Il primo squalo (2018).720p.H264.italian.english.Ac3-5.1-MIRCrew


Complete Name :The Meg - Shark - Il primo squalo (2018).720p.H264.italian.english.Ac3-5.1-MIRCrew
Download torrent:    The Meg - Shark - Il primo squalo (2018).720p.H264.italian.english.Ac3-5.1-MIRCrew.torrent
Info Hash:23251358f4cc53b2102dbae92049d9e89d7834ee
Category:Movies  > HD
Torrent language:English  
Seeds | Leech:1,668 | 807
Complete: 13,139
Health:
Total Size:1.99 GB
Downloaded:11 Times
Added By:      robbyrs
Date Added:12-11-2018 04:28:pm | Last Edit:  13-11-2018 08:28:pm

 

Main Technical Comments
The Meg - Shark - Il primo squalo (2018).720p.H264.italian.english.Ac3-5.1-MIRCrew


NO FOUND ONLY ORIGINAL RELEASE



My release is always in double track audio italian and Original audio
for select it use VLC or dvd player home
not use wmp

Shark - Il primo squalo - The Meg (2018)

Quality MIRCrew on HD 720p da  2,0 gb







Titolo originale The Meg
Lingua originale inglese
Paese di produzione Stati Uniti d'America, Cina
Anno 2018
Durata 113 min
Rapporto 2,39 : 1
Genere thriller, fantascienza, azione, orrore
Regia Jon Turteltaub
Soggetto dal romanzo di Steve Alten
Sceneggiatura Dean Georgaris, Erich Hoeber,



   Jason Statham: Jonas Taylor
   Li Bingbing: Suyin Zhang
   Rainn Wilson: Jack Morris
   Ruby Rose: Jaxx Herd
   Winston Chao: dott. Minway Zhang
   Cliff Curtis: James 'Mac' Mackreides
   Page Kennedy: D. J.
   Jessica McNamee: Lori
   ├ôlafur Darri ├ôlafsson: 'Il muro'
   Robert Taylor: dott. Heller
   Shuya Sophia Cai: Meiying
   Masi Oka: Toshi
   Rob Kipa-Williams: D'Angelo
   Tawanda Manyimo: Marks



Jonas Taylor, un sub ed esploratore marino che lavora per conto della Marina degli Stati Uniti, tenta di salvare un gruppo di scienziati intrappolati all'interno di un sottomarino nucleare nella Fossa delle Filippine. Mentre Taylor sta salvando l'ultimo sopravvissuto, vede lo scafo del sottomarino essere speronato da una creatura sconosciuta



After escaping an attack by what he claims was a 70-foot shark, Jonas Taylor must confront his fears to save those trapped in a sunken submersible.










General
Unique ID                                : 244985524401421591524426390193034124611 (0xB84E7EE8B9C09EE5268ABD8CD8925D43)
Complete name                            : Shark - The Meg (2018).720p.h264.ita.eng-MIRCrew\Shark - The Meg (2018).720p.h264.ita.eng-MIRCrew.mkv
Format                                   : Matroska
Format version                           : Version 4 / Version 2
File size                                : 1.99 GiB
Duration                                 : 1h 53mn
Overall bit rate                         : 2 522 Kbps
Movie name                               : MIRCrew
Encoded date                             : UTC 2018-11-11 19:00:51
Writing application                      : mkvmerge v26.0.0 ('In The Game') 64-bit
Writing library                          : Lavf54.63.100
DURATION                                 : 01:53:13.504000000
NUMBER_OF_FRAMES                         : 212297
NUMBER_OF_BYTES                          : 380436224
_STATISTICS_WRITING_APP                  : mkvmerge v26.0.0 ('In The Game') 64-bit
_STATISTICS_WRITING_DATE_UTC             : 2018-11-11 21:35:19
_STATISTICS_TAGS                         : BPS DURATION NUMBER_OF_FRAMES NUMBER_OF_BYTES

Video
ID                                       : 1
Format                                   : AVC
Format/Info                              : Advanced Video Codec
Format profile                           : [email protected]
Format settings, CABAC                   : Yes
Format settings, ReFrames                : 2 frames
Codec ID                                 : V_MPEG4/ISO/AVC
Duration                                 : 1h 53mn
Bit rate                                 : 1 900 Kbps
Width                                    : 1 264 pixels
Height                                   : 528 pixels
Display aspect ratio                     : 2.40:1
Frame rate mode                          : Variable
Frame rate                               : 23.976 fps
Color space                              : YUV
Chroma subsampling                       : 4:2:0
Bit depth                                : 8 bits
Scan type                                : Progressive
Bits/(Pixel*Frame)                       : 0.119
Stream size                              : 1.45 GiB (73%)
Title                                    : MIRCrew
Writing library                          : x264 core 130 r2273
Encoding settings                        : cabac=1 / ref=2 / deblock=1:0:0 / analyse=0x1:0x131 / me=hex / subme=7 / psy=1 / psy_rd=1.00:0.00 / mixed_ref=0 / me_range=16 / chroma_me=1 / trellis=1 / 8x8dct=0 / cqm=0 / deadzone=21,11 / fast_pskip=1 / chroma_qp_offset=-2 / threads=6 / lookahead_threads=1 / sliced_threads=0 / nr=0 / decimate=1 / interlaced=0 / bluray_compat=0 / constrained_intra=0 / bframes=3 / b_pyramid=0 / b_adapt=1 / b_bias=0 / direct=3 / weightb=1 / open_gop=0 / weightp=2 / keyint=230 / keyint_min=23 / scenecut=40 / intra_refresh=0 / rc_lookahead=40 / rc=abr / mbtree=1 / bitrate=1900 / ratetol=1.0 / qcomp=0.60 / qpmin=10 / qpmax=69 / qpstep=4 / vbv_maxrate=24000 / vbv_bufsize=24000 / nal_hrd=none / ip_ratio=1.40 / aq=1:1.00
Language                                 : Italian
Default                                  : Yes
Forced                                   : No
HANDLER_NAME                             : VideoHandler
DURATION                                 : 01:53:13.662000000
NUMBER_OF_FRAMES                         : 162885
NUMBER_OF_BYTES                          : 1596416308
_STATISTICS_WRITING_APP                  : mkvmerge v26.0.0 ('In The Game') 64-bit
_STATISTICS_WRITING_DATE_UTC             : 2018-11-11 21:35:19
_STATISTICS_TAGS                         : BPS DURATION NUMBER_OF_FRAMES NUMBER_OF_BYTES

Audio #1
ID                                       : 2
Format                                   : AC-3
Format/Info                              : Audio Coding 3
Mode extension                           : CM (complete main)
Codec ID                                 : A_AC3
Duration                                 : 1h 53mn
Bit rate mode                            : Constant
Bit rate                                 : 448 Kbps
Channel(s)                               : 6 channels
Channel positions                        : Front: L C R, Side: L R, LFE
Sampling rate                            : 48.0 KHz
Bit depth                                : 16 bits
Compression mode                         : Lossy
Delay relative to video                  : -42ms
Stream size                              : 363 MiB (18%)
Title                                    : Ita Ac3 5.1
Default                                  : Yes
Forced                                   : No
HANDLER_NAME                             : SoundHandler
DURATION                                 : 01:53:13.664000000
NUMBER_OF_FRAMES                         : 212302
NUMBER_OF_BYTES                          : 163047936
_STATISTICS_WRITING_APP                  : mkvmerge v26.0.0 ('In The Game') 64-bit
_STATISTICS_WRITING_DATE_UTC             : 2018-11-11 21:35:19
_STATISTICS_TAGS                         : BPS DURATION NUMBER_OF_FRAMES NUMBER_OF_BYTES

Audio #2
ID                                       : 3
Format                                   : AC-3
Format/Info                              : Audio Coding 3
Mode extension                           : CM (complete main)
Codec ID                                 : A_AC3
Duration                                 : 1h 53mn
Bit rate mode                            : Constant
Bit rate                                 : 192 Kbps
Channel(s)                               : 2 channels
Channel positions                        : Front: L R
Sampling rate                            : 48.0 KHz
Bit depth                                : 16 bits
Compression mode                         : Lossy
Delay relative to video                  : -5ms
Stream size                              : 155 MiB (8%)
Title                                    : Eng Ac3
Language                                 : English
Default                                  : No
Forced                                   : No


........................................................................


Loading...


Trackers:
udp://tracker.coppersurfer.tk:6969/announce

The Meg - Shark - Il primo squalo (2018).720p.H264.italian.english.Ac3-5.1-MIRCrew
Files
by MIRCrew.txt67.00 B
Shark - The Meg (2018).720p.h264.ita.eng-MIRCrew.mkv1.99 GB


Similar Torrents
Type Name Size Added S L
Divx/Xvid The.Meg.2018.HC.HDRip.XviD.AC3-EVO
1.38 GB 2018-09-16 19:56:47 39205 11475
HD The.Meg.2018.1080p.HC.HDRip.X264.AC3-EVO
3.65 GB 2018-09-16 19:55:58 19855 7144
HD The.Meg.2018.720p.HC.HDRip.X264.AC3-EVO
2.53 GB 2018-09-16 19:55:10 10321 3396
Cam/TS The Meg 2018.HDCAM.XViD.AC3-ETRG
1.26 GB 2018-08-11 09:55:06 6895 3148
Divx/Xvid The.Meg.2018.HDRip.XviD.AC3-EVO
1.39 GB 2018-10-13 13:36:32 5634 1338
HD The.Meg.2018.1080p.WEB-DL.H264.AC3-EVO[EtHD]
3.89 GB 2018-10-30 03:48:18 3376 1067
Cam/TS The Meg 2018 New 1080p HDTC-X264-AAC-NeNi
1.97 GB 2018-08-15 14:47:28 3183 2672
Divx/Xvid The.Meg.2018.V2.HC.HDRip.XviD.AC3-EVO
1.39 GB 2018-10-04 15:35:22 3147 1679
Cam/TS The Meg 2018 720p TS-1XBET
2.44 GB 2018-08-15 22:51:28 2504 866
Dubs/Dual Audio The Meg 2018 1080p HC HDRip x264 Dual Audio [Hindi...
1.86 GB 2018-09-17 12:16:48 2251 1117

Comments:
No comments still posted
Loading...
Powered by TT | Page Generated In 0.051728 secs.
| RSS Feed | Feed Info