[Login] or [Signup]

First Cams

Xvid/x264



Non-English

Loading...

Thugs of Hindostan (2018) 720p Hindi Pre-DVDRip x264 AAC by Full4movies


Complete Name :Thugs of Hindostan (2018) 720p Hindi Pre-DVDRip x264 AAC by Full4movies
Download torrent:    Thugs of Hindostan (2018) 720p Hindi Pre-DVDRip x264 AAC by Full4movies.torrent
Info Hash:cc69a9fd3192064ff1a599a3a758bd7e17a8a452
Category:Movies  > Cam/TS
Torrent language:Hindi  
Seeds | Leech:439 | 207
Complete: 1,227
Health:
Total Size:1.36 GB
Downloaded:14 Times
Added By:      full4movies
Date Added:12-11-2018 10:20:am | Last Edit:  13-11-2018 03:37:pm

 

IMDB
Thugs of Hindostan
Thugs of Hindostan Released 08 Nov 2018

Genre Action, Adventure

Director Vijay Krishna Acharya

Writer Vijay Krishna Acharya

Actors Katrina Kaif, Aamir Khan, Amitabh Bachchan, Fatima Sana Shaikh

Plot In the 18th century, the British East India Company is pitted against Khudabaksh, a "Thug of the Seas" fighting to liberate his country. The English, not knowing how to defeat him, call on a talented con artist, Firangi Mallah.

Link http://www.imdb.com/title/tt5970844

Last Updated 17-12-2018 08:08:51
3.5

Votes 10,809

Main Technical Comments


General
Complete name                  : Thugs of Hindostan (2018) 720p Hindi Pre-DVDRip x264 AAC by Full4movies.mkv
Format                         : Matroska
Format version                 : Version 4 / Version 2
File size                      : 1.36 GiB
Duration                       : 2 h 33 min
Overall bit rate               : 1 272 kb/s
Movie name                     : www.Full4movies.co
Encoded date                   : UTC 2018-11-08 19:49:15
Writing application            : mkvmerge v8.1.0 ('Psychedelic Postcard') 32bit
Writing library                : libebml v1.3.1 + libmatroska v1.4.2

Video
ID                             : 1
Format                         : AVC
Format/Info                    : Advanced Video Codec
Format profile                 : [email protected]
Format settings, CABAC         : Yes
Format settings, RefFrames     : 4 frames
Codec ID                       : V_MPEG4/ISO/AVC
Duration                       : 2 h 33 min
Bit rate                       : 1 145 kb/s
Width                          : 1 280 pixels
Height                         : 544 pixels
Display aspect ratio           : 2.35:1
Frame rate mode                : Variable
Frame rate                     : 24.524 FPS
Color space                    : YUV
Chroma subsampling             : 4:2:0
Bit depth                      : 8 bits
Scan type                      : Progressive
Bits/(Pixel*Frame)             : 0.067
Stream size                    : 1.23 GiB (90%)
Writing library                : x264 core 155 r2901 7d0ff22
Default                        : Yes
Forced                         : No
Color range                    : Limited
Color primaries                : BT.709
Transfer characteristics       : BT.709
Matrix coefficients            : BT.709

Audio
ID                             : 2
Format                         : AAC
Format/Info                    : Advanced Audio Codec
Format profile                 : LC
Codec ID                       : A_AAC
Duration                       : 2 h 32 min
Bit rate                       : 127 kb/s
Channel(s)                     : 2 channels
Channel positions              : Front: L R
Sampling rate                  : 48.0 kHz
Frame rate                     : 46.875 FPS (1024 SPF)
Compression mode               : Lossy
Delay relative to video        : -21 ms
Stream size                    : 138 MiB (10%)
Language                       : Hindi
Default                        : Yes
Forced                         : No

Screen Shoots
........................................................................


Loading...


Trackers:
udp://tracker.coppersurfer.tk:6969/announce

Thugs of Hindostan (2018) 720p Hindi Pre-DVDRip x264 AAC by Full4movies
Files
Thugs of Hindostan (2018) 720p Hindi Pre-DVDRip x264 AAC by Full4movies.mkv1.36 GB


Similar Torrents
Type Name Size Added S L
h.264/x264 Thugs of Hindostan (2018) Hindi pDVDRip x264 700Mi...
716.67 MB 2018-11-08 16:21:19 2982 2943
h.264/x264 Thugs of Hindostan (2018) New Source Desi PerDVDRi...
1.23 GB 2018-11-10 09:15:04 2239 1649
Divx/Xvid Thugs of Hindostan (2018) NEW PerDVDRip Bollywood ...
776.72 MB 2018-11-09 07:43:26 1463 985
Non-English Thugs of Hindostan 2018 PreDvd V2 Hindi 720p x264 ...
1.20 GB 2018-11-10 05:58:32 1215 875
h.264/x264 Thugs of Hindostan (2018) NEW PerDVDRip x264 Bolly...
1.30 GB 2018-11-09 07:31:34 842 533
h.264/x264 Thugs of Hindostan (2018) PerDVDRip x264 Bollywood...
780.68 MB 2018-11-08 14:31:22 772 685
Non-English Thugs of Hindostan 2018 Hindi 720p PRE DVDRip x264...
1.30 GB 2018-11-09 11:31:00 756 331
Non-English Thugs of Hindostan 2018 Hindi 720p HDCAM x264 MP3 ...
2.22 GB 2018-11-08 17:43:39 665 335
h.264/x264 Thugs of Hindostan (2018) New Source Desi PerDVDRi...
714.43 MB 2018-11-10 09:23:16 503 184
h.264/x264 Thugs of Hindostan 2018 Hindi 720p PRE-DVDRip x264...
1.33 GB 2018-11-08 15:33:06 490 324

Comments:
No comments still posted
Loading...
Powered by TT | Page Generated In 0.580845 secs.
| RSS Feed | Feed Info