[Login] or [Signup]


Warning! Use a VPN When Downloading Torrents!
Your IP Address is .   Location is
Your Internet Provider is tracking your torrent activity!  Hide your IP ADDRESS with a VPN!
We strongly recommend using Trust.Zone VPN to anonymize your torrenting. It's FREE!
Get VPN Now for FREE!
First Cams

Xvid/x264



Non-English

Loading...

Paltan (2018) 720p Hindi (DD 5.1) HDRip x264 AAC by Full4movies


Complete Name :Paltan (2018) 720p Hindi (DD 5.1) HDRip x264 AAC by Full4movies
Download torrent:    Paltan (2018) 720p Hindi (DD 5.1) HDRip x264 AAC by Full4movies.torrent
Info Hash:01d79f2ea100dc5310c92c126399147afc6aa2bd
Category:Movies  > HD
Torrent language:Hindi  
Seeds | Leech:268 | 90
Complete: 554
Health:
Total Size:1.36 GB
Downloaded:13 Times
Added By:      full4movies
Date Added:12-11-2018 10:09:am | Last Edit:  27-01-2019 02:01:am

 

IMDB
Hamari paltan
Hamari paltan Released N/A

Genre Drama

Director Jainendra Jigyasu

Writer N/A

Actors Manoj Bakshi

Plot N/A

Link http://www.imdb.com/title/tt8333954

Last Updated 20-02-2019 03:03:30

Main Technical Comments


General
Complete name                  : Paltan (2018) 720p Hindi (DD 5.1) HDRip x264 AAC by Full4movies.mkv
Format                         : Matroska
Format version                 : Version 4 / Version 2
File size                      : 1.36 GiB
Duration                       : 2 h 27 min
Overall bit rate               : 1 323 kb/s
Movie name                     : www.Full4movies.co
Encoded date                   : UTC 2018-11-08 19:18:55
Writing application            : mkvmerge v8.1.0 ('Psychedelic Postcard') 32bit
Writing library                : libebml v1.3.1 + libmatroska v1.4.2

Video
ID                             : 1
Format                         : AVC
Format/Info                    : Advanced Video Codec
Format profile                 : [email protected]
Format settings, CABAC         : Yes
Format settings, RefFrames     : 4 frames
Codec ID                       : V_MPEG4/ISO/AVC
Duration                       : 2 h 27 min
Bit rate                       : 1 263 kb/s
Width                          : 1 280 pixels
Height                         : 544 pixels
Display aspect ratio           : 2.35:1
Frame rate mode                : Constant
Frame rate                     : 25.000 FPS
Color space                    : YUV
Chroma subsampling             : 4:2:0
Bit depth                      : 8 bits
Scan type                      : Progressive
Bits/(Pixel*Frame)             : 0.073
Stream size                    : 1.28 GiB (94%)
Title                          : www.Full4movies.co
Writing library                : x264 core 155 r2901 7d0ff22
Default                        : Yes
Forced                         : No
Color range                    : Limited
Color primaries                : BT.709
Transfer characteristics       : BT.709
Matrix coefficients            : BT.709

Audio
ID                             : 2
Format                         : AAC
Format/Info                    : Advanced Audio Codec
Format profile                 : LC
Codec ID                       : A_AAC
Duration                       : 2 h 27 min
Bit rate                       : 80.2 kb/s
Channel(s)                     : 2 channels
Channel positions              : Front: L R
Sampling rate                  : 48.0 kHz
Frame rate                     : 46.875 FPS (1024 SPF)
Compression mode               : Lossy
Stream size                    : 84.7 MiB (6%)
Language                       : Hindi
Default                        : Yes
Forced                         : No

Screen Shoots
........................................................................


Loading...


Trackers:
udp://tracker.coppersurfer.tk:6969/announce

Paltan (2018) 720p Hindi (DD 5.1) HDRip x264 AAC by Full4movies
Files
Paltan (2018) 720p Hindi (DD 5.1) HDRip x264 AAC by Full4movies.mkv --- 1.36 GB


Similar Torrents
Type Name Size Added S L
h.264/x264 Paltan (2018) Hindi 720p HDRip x264 AAC - Download...
1.13 GB 2018-11-07 03:01:28 1205 547
HD Paltan (2018) 720p Hindi HDRip x264 AAC 5.1 - 1.4G...
1.36 GB 2018-11-07 05:37:07 818 469
h.264/x264 Paltan (2018) Hindi HDRip x264 AAC Bollywood Movie...
741.06 MB 2018-11-07 06:35:08 817 310
h.264/x264 Paltan (2018) Hindi 720p Pre-DVDRip x264 AAC - Dow...
1.09 GB 2018-09-08 03:08:06 785 388
HD Paltan (2018) Hindi HDRip x264 AAC Bollywood Movie...
1.45 GB 2018-11-07 06:29:29 753 541
Non-English Paltan (2018) Hindi HDRip x264 MP3 700MB[MOVCR]
689.69 MB 2018-11-07 07:23:00 347 269
HD Paltan (2018) Hindi HDRip x264 AAC by Full4movies
689.69 MB 2018-11-12 10:13:48 295 64
Cam/TS Paltan (2018) Hindi Pre-DVDRip x264 AAC by Full4mo...
758.40 MB 2018-09-08 08:33:05 224 83
h.264/x264 Paltan (2018) Hindi 720p WEB-HD AVC AAC-Sun George
1.75 GB 2018-11-09 15:00:18 216 209
HD Paltan (2018) HDRip [movieow]
1.18 GB 2018-11-13 17:07:07 8 5

Comments:
No comments still posted
Loading...
Powered by TT | Page Generated In 0.615513 secs.
| RSS Feed | Feed Info