[Login] or [Signup]

First Cams

Xvid/x264



Non-English

Loading...

Laila Majnu (2018) Hindi 720p WEB-HD AVC AAC-Sun George


Complete Name :Laila Majnu (2018) Hindi 720p WEB-HD AVC AAC-Sun George
Download torrent:    Laila Majnu (2018) Hindi 720p WEB-HD AVC AAC-Sun George.torrent
Info Hash:c2a7267065c3a7e5919ab19fbb0c1fcedf7dcc48
Category:Movies  > h.264/x264
Torrent language:Hindi  
Seeds | Leech:220 | 251
Complete: 850
Health:
Total Size:1.41 GB
Downloaded:10 Times
Added By:      sungeorge
Date Added:09-11-2018 04:29:pm | Last Edit:  10-11-2018 07:43:pm

 
IMDB
Laila Majnu
Laila Majnu Released 07 Sep 2018

Genre Drama, Romance

Director Sajid Ali

Writer Imtiaz Ali, Sajid Ali

Actors Avinash Tiwary, Tripti Dimri, Sumit Kaul, Abrar Qazi

Plot Taking the leap out of the classic folklore, the story is set in today's time in Kashmir where Laila Majnu have problems relevant to the youth of today. While dealing with their feuding families a passionate love story unravels.

Link http://www.imdb.com/title/tt8011276

Last Updated 14-11-2018 13:38:56
8.3

Votes 433

Main Technical Comments
Laila Majnu (2018) Hindi 720p WEB-HD AVC AAC-Sun George


https://www.imdb.com/title/tt8011276/





===================================================================

General
Format                                   : Matroska
Format version                           : Version 4 / Version 2
File size                                : 1.38 GiB
Duration                                 : 2 h 12 min
Overall bit rate                         : 1 500 kb/s
Movie name : Laila Majnu (2018) Hindi 720p WEB-HD AVC AAC-Sun George

===================================================================

Video
ID                                       : 1
Format                                   : AVC
Format/Info                              : Advanced Video Codec
Format profile                           : [email protected]
Format settings                          : CABAC / 4 Ref Frames
Format settings, CABAC                   : Yes
Format settings, RefFrames               : 4 frames
Codec ID                                 : V_MPEG4/ISO/AVC
Duration                                 : 2 h 12 min
Bit rate                                 : 1 248 kb/s
Width                                    : 1 280 pixels
Height                                   : 720 pixels
Display aspect ratio                     : 16:9
Frame rate mode                          : Variable
Frame rate                               : 25.000 FPS
Color space                              : YUV
Chroma subsampling                       : 4:2:0
Bit depth                                : 8 bits
Scan type                                : Progressive
Bits/(Pixel*Frame)                       : 0.054
Stream size                              : 1.15 GiB (83%)
Title                                    : Sun George

===================================================================

Audio
ID                                       : 2
Format                                   : AAC
Format/Info                              : Advanced Audio Codec
Format profile                           : LC
Codec ID                                 : A_AAC-2
Duration                                 : 2 h 12 min
Bit rate                                 : 249 kb/s
Channel(s)                               : 2 channels
Channel positions                        : Front: L R
Sampling rate                            : 48.0 kHz
Frame rate                               : 46.875 FPS (1024 SPF)
Compression mode                         : Lossy
Stream size                              : 236 MiB (17%)
Title                                    : Sun George
Writing library                          : Lavc57.42.100 aac
Language                                 : Hindi
Default                                  : Yes
Forced                                   : No











........................................................................


Loading...


Trackers:
udp://tracker.publicbt.com:80/announce

Laila Majnu (2018) Hindi 720p WEB-HD AVC AAC-Sun George
Files
INFO.NFO55.00 B
Laila Majnu (2018) Hindi 720p WEB-HD AVC AAC-Sun George.mkv1.38 GB
Sample Laila Majnu (2018) Hindi 720p WEB-HD AVC AAC-Sun George.mkv24.25 MB


Similar Torrents
Type Name Size Added S L
HD Laila Majnu (2018) [HINDI - 720p - WEB HDRip - x26...
2.00 GB 2018-11-09 13:24:54 935 723
Non-English Laila Majnu 2018 WebRip Hindi 720p x264 AAC - mkvC...
1.06 GB 2018-11-09 11:16:23 563 507
h.264/x264 Laila Majnu (2018) Hindi 720p HDRip x264 AAC - Dow...
1.01 GB 2018-11-09 00:44:05 455 176
HD Laila Majnu 2018 HDRip x264 Hindi AAC 300Mb [220x]
382.84 MB 2018-11-10 23:24:57 433 54
HD Laila Majnu 2018 x264 720p HD Hindi GOPISAHI
658.06 MB 2018-11-10 05:12:17 361 137
Non-English Laila.Majnu.2018.Hindi.720p.HDRip.x264.AC3.-.Hon3y...
3.00 GB 2018-11-09 21:52:22 336 289
Non-English Laila.Majnu.2018.Hindi.720p.HDRip.x264.AAC.-.Hon3y...
1.20 GB 2018-11-09 02:23:00 322 59
HD Laila Majnu 2018 Hindi 720p HDRip x264 AAC { TaRa ...
1.29 GB 2018-11-09 06:36:02 319 193
Non-English Laila Majnu 2018 Hindi 1080p WEB-DL x264 [MW]
1.83 GB 2018-11-11 13:10:15 282 321
HD Laila Majnu (2018) 720p Hindi (DD 5.1) HDRip x264 ...
1.29 GB 2018-11-12 09:13:58 261 185

Comments:
No comments still posted
Loading...
Powered by TT | Page Generated In 0.634014 secs.
| RSS Feed | Feed Info