[Login] or [Signup]

First Cams

Xvid/x264



Non-English

Loading...

The Predator 2018 720p HC HDRip x264 [MW]


Complete Name :The Predator 2018 720p HC HDRip x264 [MW]
Download torrent:    The Predator 2018 720p HC HDRip x264 [MW].torrent
Info Hash:404720eedcf1ade18a5eedfe5c08bcd0d185d167
Category:Movies  > HD
Torrent language:English  
Seeds | Leech:252 | 75
Complete: 1,855
Health:
Total Size:1,010.96 MB
Downloaded:11 Times
Added By:      MovieFreak
Date Added:09-11-2018 03:55:pm | Last Edit:  10-11-2018 06:38:pm

 
IMDB
The Predator
The Predator Released 14 Sep 2018

Genre Action, Adventure, Horror, Sci-Fi, Thriller

Director Shane Black

Writer Fred Dekker, Shane Black, Jim Thomas (based on characters created by), John Thomas (based on characters created by)

Actors Boyd Holbrook, Trevante Rhodes, Jacob Tremblay, Keegan-Michael Key

Plot When a young boy accidentally triggers the universe's most lethal hunters' return to Earth, only a ragtag crew of ex-soldiers and a disgruntled scientist can prevent the end of the human race.

Link http://www.imdb.com/title/tt3829266

Last Updated 12-11-2018 20:24:00
5.9

Votes 36,252

Main Technical Comments




General
Format                                   : Matroska
Format version                           : Version 4 / Version 2
File size                                : 1 011 MiB
Duration                                 : 1 h 46 min
Overall bit rate                         : 1 323 kb/s

Video
ID                                       : 1
Format                                   : AVC
Format/Info                              : Advanced Video Codec
Format profile                           : [email protected]
Format settings                          : CABAC / 4 Ref Frames
Format settings, CABAC                   : Yes
Format settings, RefFrames               : 4 frames
Codec ID                                 : V_MPEG4/ISO/AVC
Duration                                 : 1 h 46 min
Bit rate                                 : 1 200 kb/s
Width                                    : 1 280 pixels
Height                                   : 532 pixels
Display aspect ratio                     : 2.40:1
Frame rate mode                          : Constant
Frame rate                               : 30.000 FPS
Color space                              : YUV
Chroma subsampling                       : 4:2:0
Bit depth                                : 8 bits
Scan type                                : Progressive
Bits/(Pixel*Frame)                       : 0.059
Stream size                              : 911 MiB (90%)
Writing library                          : x264 core 155 r2901 7d0ff22
Default                                  : Yes
Forced                                   : No

Audio
ID                                       : 2
Format                                   : AAC
Format/Info                              : Advanced Audio Codec
Format profile                           : LC
Codec ID                                 : A_AAC-2
Duration                                 : 1 h 46 min
Bit rate                                 : 128 kb/s
Channel(s)                               : 2 channels
Channel positions                        : Front: L R
Sampling rate                            : 48.0 kHz
Frame rate                               : 46.875 FPS (1024 SPF)
Compression mode                         : Lossy
Stream size                              : 98.1 MiB (10%)
Language                                 : English
Default                                  : Yes
Forced                                   : No


https://pichub.site/image/VpkBj
https://pichub.site/image/VpcRh
https://pichub.site/image/VpwPr
https://pichub.site/image/VpCJk
https://pichub.site/image/VphhQ
https://pichub.site/image/Vpiov

........................................................................


Loading...


Trackers:
udp://tracker.coppersurfer.tk:6969/announce

The Predator 2018 720p HC HDRip x264 [MW]
Files
The Predator 2018 720p HC HDRip x264 [MW].mkv1,010.96 MB


Similar Torrents
Type Name Size Added S L
Divx/Xvid The.Predator.2018.HC.HDRip.XviD.AC3-EVO
1.39 GB 2018-11-09 10:01:24 23989 8893
Cam/TS The Predator 2018 TS-1XBET
2.46 GB 2018-09-13 23:53:06 18591 8925
Cam/TS The Predator 2018 NEW 720p HDCAM-24HD
2.09 GB 2018-10-05 18:40:07 7904 2895
Cam/TS The Predator 2018.HDTS.XViD.AC3-ETRG
1.26 GB 2018-09-14 09:30:32 5401 2434
HD The Predator 2018 1080p HC HDRip x264 [MW]
1.81 GB 2018-11-11 20:04:14 4198 1939
Dubs/Dual Audio The Predator 2018 720p HDTS x264 Dual Audio [Hindi...
1.17 GB 2018-09-15 12:08:11 3854 889
Cam/TS The Predator 2018 Movies HD TS x264 Clean Audio AA...
705.09 MB 2018-09-14 04:37:56 2514 1029
HD The.Predator.2018.1080p.HC.HDRip.X264.AC3-EVO[EtHD...
3.49 GB 2018-11-09 10:32:53 2367 928
Cam/TS The Predator 2018 NEW.HDCAM.XViD.AC3-ETRG
1.26 GB 2018-09-17 13:39:35 2251 817
Cam/TS The Predator 2018 NEW HDCAM V2 XViD AC3-ETRG
1.24 GB 2018-09-19 16:07:49 2108 849

Comments:
No comments still posted
Loading...
Powered by TT | Page Generated In 0.594204 secs.
| RSS Feed | Feed Info