[Login] or [Signup]

First Cams

Xvid/x264



Non-English

Loading...

Paltan (2018) Hindi 720p WEB-HD AVC AAC-Sun George


Complete Name :Paltan (2018) Hindi 720p WEB-HD AVC AAC-Sun George
Download torrent:    Paltan (2018) Hindi 720p WEB-HD AVC AAC-Sun George.torrent
Info Hash:9f505ef52c8342d5c252fac6c44333def1bcca7d
Category:Movies  > h.264/x264
Torrent language:Hindi  
Seeds | Leech:216 | 209
Complete: 777
Health:
Total Size:1.75 GB
Downloaded:10 Times
Added By:      sungeorge
Date Added:09-11-2018 03:00:pm | Last Edit:  10-11-2018 06:43:pm

 

IMDB
Hamari paltan
Hamari paltan Released N/A

Genre Drama

Director Jainendra Jigyasu

Writer N/A

Actors Manoj Bakshi

Plot N/A

Link http://www.imdb.com/title/tt8333954

Last Updated 19-11-2018 22:49:07

Main Technical Comments
Paltan (2018) Hindi 720p WEB-HD AVC AAC-Sun George


https://www.imdb.com/title/tt7162758/





===================================================================

General
Format                                   : Matroska
Format version                           : Version 4 / Version 2
File size                                : 1.73 GiB
Duration                                 : 2 h 27 min
Overall bit rate                         : 1 676 kb/s
Movie name : Paltan (2018) Hindi 720p WEB-HD AVC AAC-Sun George

===================================================================

Video
ID                                       : 1
Format                                   : AVC
Format/Info                              : Advanced Video Codec
Format profile                           : [email protected]
Format settings                          : CABAC / 4 Ref Frames
Format settings, CABAC                   : Yes
Format settings, RefFrames               : 4 frames
Codec ID                                 : V_MPEG4/ISO/AVC
Duration                                 : 2 h 27 min
Bit rate                                 : 1 405 kb/s
Width                                    : 1 280 pixels
Height                                   : 720 pixels
Display aspect ratio                     : 16:9
Frame rate mode                          : Constant
Frame rate                               : 25.000 FPS
Color space                              : YUV
Chroma subsampling                       : 4:2:0
Bit depth                                : 8 bits
Scan type                                : Progressive
Bits/(Pixel*Frame)                       : 0.061
Stream size                              : 1.45 GiB (84%)
Title                                    : Sun George

===================================================================

Audio
ID                                       : 2
Format                                   : AAC
Format/Info                              : Advanced Audio Codec
Format profile                           : LC
Codec ID                                 : A_AAC-2
Duration                                 : 2 h 27 min
Bit rate                                 : 265 kb/s
Channel(s)                               : 2 channels
Channel positions                        : Front: L R
Sampling rate                            : 48.0 kHz
Frame rate                               : 46.875 FPS (1024 SPF)
Compression mode                         : Lossy
Stream size                              : 284 MiB (16%)
Title                                    : Sun George
Writing library                          : Lavc57.42.100 aac
Language                                 : Hindi
Default                                  : Yes
Forced                                   : No













........................................................................


Loading...


Trackers:
udp://tracker.publicbt.com:80/announce

Paltan (2018) Hindi 720p WEB-HD AVC AAC-Sun George
Files
INFO.NFO55.00 B
Paltan (2018) Hindi 720p WEB-HD AVC AAC-Sun George.mkv1.73 GB
Sample Paltan (2018) Hindi 720p WEB-HD AVC AAC-Sun George.mkv19.26 MB


Similar Torrents
Type Name Size Added S L
h.264/x264 Paltan (2018) Hindi 720p HDRip x264 AAC - Download...
1.13 GB 2018-11-07 03:01:28 1205 547
HD Paltan (2018) 720p Hindi HDRip x264 AAC 5.1 - 1.4G...
1.36 GB 2018-11-07 05:37:07 818 469
h.264/x264 Paltan (2018) Hindi HDRip x264 AAC Bollywood Movie...
741.06 MB 2018-11-07 06:35:08 817 310
h.264/x264 Paltan (2018) Hindi 720p Pre-DVDRip x264 AAC - Dow...
1.09 GB 2018-09-08 03:08:06 785 388
HD Paltan (2018) Hindi HDRip x264 AAC Bollywood Movie...
1.45 GB 2018-11-07 06:29:29 753 541
Non-English Paltan (2018) Hindi HDRip x264 MP3 700MB[MOVCR]
689.69 MB 2018-11-07 07:23:00 347 269
HD Paltan (2018) Hindi HDRip x264 AAC by Full4movies
689.69 MB 2018-11-12 10:13:48 295 64
HD Paltan (2018) 720p Hindi (DD 5.1) HDRip x264 AAC b...
1.36 GB 2018-11-12 10:09:47 268 90
Cam/TS Paltan (2018) Hindi Pre-DVDRip x264 AAC by Full4mo...
758.40 MB 2018-09-08 08:33:05 224 83
HD Paltan (2018) HDRip [movieow]
1.18 GB 2018-11-13 17:07:07 8 5

Comments:
No comments still posted
Loading...
Powered by TT | Page Generated In 0.210187 secs.
| RSS Feed | Feed Info