[Login] or [Signup]

First Cams

Xvid/x264



Non-English

Loading...

Pocketman and Cargoboy 2018 720p WEBRip x264 ESub [MW]


Complete Name :Pocketman and Cargoboy 2018 720p WEBRip x264 ESub [MW]
Download torrent:    Pocketman and Cargoboy 2018 720p WEBRip x264 ESub [MW].torrent
Info Hash:9755ff389d14cadd2b2486023d3297e768860013
Category:Movies  > HD
Torrent language:English  
Seeds | Leech:29 | 36
Complete: 105
Health:
Total Size:803.49 MB
Downloaded:10 Times
Added By:      MovieFreak
Date Added:09-11-2018 01:55:pm | Last Edit:  10-11-2018 04:46:pm

 

IMDB
Pocketman and Cargoboy
Pocketman and Cargoboy Released 12 Oct 2018

Genre Adventure, Comedy, Sci-Fi

Director Clay Moffatt

Writer Mackenzie Clark (story), Clay Moffatt

Actors Gianna Frangella, Adam Berardi, Damian Michael Pearsall, Jeremy Behie

Plot Teenage secret agents must travel to the past and stop an evil doctor from creating a virus that wipes out all life in the future.

Link http://www.imdb.com/title/tt7625712

Last Updated 19-11-2018 14:20:40
9.3

Votes 15

Main Technical Comments




General
Format                                   : Matroska
Format version                           : Version 4 / Version 2
File size                                : 803 MiB
Duration                                 : 1 h 26 min
Overall bit rate                         : 1 291 kb/s

Video
ID                                       : 1
Format                                   : AVC
Format/Info                              : Advanced Video Codec
Format profile                           : [email protected]
Format settings                          : CABAC / 4 Ref Frames
Format settings, CABAC                   : Yes
Format settings, RefFrames               : 4 frames
Codec ID                                 : V_MPEG4/ISO/AVC
Duration                                 : 1 h 26 min
Bit rate                                 : 1 200 kb/s
Width                                    : 1 280 pixels
Height                                   : 720 pixels
Display aspect ratio                     : 16:9
Frame rate mode                          : Constant
Frame rate                               : 23.976 (24000/1001) FPS
Color space                              : YUV
Chroma subsampling                       : 4:2:0
Bit depth                                : 8 bits
Scan type                                : Progressive
Bits/(Pixel*Frame)                       : 0.054
Stream size                              : 724 MiB (90%)
Writing library                          : x264 core 155 r2901 7d0ff22
Default                                  : Yes
Forced                                   : No

Audio
ID                                       : 2
Format                                   : AAC
Format/Info                              : Advanced Audio Codec
Format profile                           : LC
Codec ID                                 : A_AAC-2
Duration                                 : 1 h 26 min
Bit rate                                 : 125 kb/s
Channel(s)                               : 2 channels
Channel positions                        : Front: L R
Sampling rate                            : 48.0 kHz
Frame rate                               : 46.875 FPS (1024 SPF)
Compression mode                         : Lossy
Stream size                              : 78.1 MiB (10%)
Language                                 : English
Default                                  : Yes
Forced                                   : No

Text
ID                                       : 3
Format                                   : UTF-8
Codec ID                                 : S_TEXT/UTF8
Codec ID/Info                            : UTF-8 Plain Text
Duration                                 : 1 h 24 min
Bit rate                                 : 76 b/s
Count of elements                        : 1892
Stream size                              : 47.4 KiB (0%)
Language                                 : English
Default                                  : No
Forced                                   : No


https://pichub.site/image/Vo3Zs
https://pichub.site/image/VoH66
https://pichub.site/image/Vo9BY
https://pichub.site/image/VoQh4
https://pichub.site/image/VoFft
https://pichub.site/image/VoWrp





General
Format                                   : Matroska
Format version                           : Version 4 / Version 2
File size                                : 803 MiB
Duration                                 : 1 h 26 min
Overall bit rate                         : 1 291 kb/s

Video
ID                                       : 1
Format                                   : AVC
Format/Info                              : Advanced Video Codec
Format profile                           : [email protected]
Format settings                          : CABAC / 4 Ref Frames
Format settings, CABAC                   : Yes
Format settings, RefFrames               : 4 frames
Codec ID                                 : V_MPEG4/ISO/AVC
Duration                                 : 1 h 26 min
Bit rate                                 : 1 200 kb/s
Width                                    : 1 280 pixels
Height                                   : 720 pixels
Display aspect ratio                     : 16:9
Frame rate mode                          : Constant
Frame rate                               : 23.976 (24000/1001) FPS
Color space                              : YUV
Chroma subsampling                       : 4:2:0
Bit depth                                : 8 bits
Scan type                                : Progressive
Bits/(Pixel*Frame)                       : 0.054
Stream size                              : 724 MiB (90%)
Writing library                          : x264 core 155 r2901 7d0ff22
Default                                  : Yes
Forced                                   : No

Audio
ID                                       : 2
Format                                   : AAC
Format/Info                              : Advanced Audio Codec
Format profile                           : LC
Codec ID                                 : A_AAC-2
Duration                                 : 1 h 26 min
Bit rate                                 : 125 kb/s
Channel(s)                               : 2 channels
Channel positions                        : Front: L R
Sampling rate                            : 48.0 kHz
Frame rate                               : 46.875 FPS (1024 SPF)
Compression mode                         : Lossy
Stream size                              : 78.1 MiB (10%)
Language                                 : English
Default                                  : Yes
Forced                                   : No

Text
ID                                       : 3
Format                                   : UTF-8
Codec ID                                 : S_TEXT/UTF8
Codec ID/Info                            : UTF-8 Plain Text
Duration                                 : 1 h 24 min
Bit rate                                 : 76 b/s
Count of elements                        : 1892
Stream size                              : 47.4 KiB (0%)
Language                                 : English
Default                                  : No
Forced                                   : No


https://pichub.site/image/Vo3Zs
https://pichub.site/image/VoH66
https://pichub.site/image/Vo9BY
https://pichub.site/image/VoQh4
https://pichub.site/image/VoFft
https://pichub.site/image/VoWrp

........................................................................


Loading...


Trackers:
udp://tracker.coppersurfer.tk:6969/announce

Pocketman and Cargoboy 2018 720p WEBRip x264 ESub [MW]
Files
Pocketman and Cargoboy 2018 720p WEBRip x264 ESub [MW].mkv803.49 MB


Similar Torrents
Type Name Size Added S L
Divx/Xvid Pocketman.and.Cargoboy.2018.HDRip.XviD.AC3-EVO
1.19 GB 2018-11-07 19:27:43 850 474
h.264/x264 Pocketman.and.Cargoboy.2018.HDRip.XviD.AC3-EVO[EtM...
1.19 GB 2018-11-08 10:59:09 77 49
HD Pocketman.and.Cargoboy.2018.1080p.AMZN.WEB-DL.DD2....
5.81 GB 2018-11-07 19:02:03 51 31
HD Pocketman.and.Cargoboy.2018.AMZN.WEB-DL.DD2.0.H264...
1.22 GB 2018-11-07 19:22:24 44 20
h.264/x264 Pocketman.and.Cargoboy.2018.720p.AMZN.WEB-DL.DD2.0...
3.48 GB 2018-11-07 18:56:39 35 22
h.264/x264 Pocketman.and.Cargoboy.2018.AMZN.WEB-DL.DD2.0.H264...
1.22 GB 2018-11-07 19:21:29 12 19

Comments:
No comments still posted
Loading...
Powered by TT | Page Generated In 0.694696 secs.
| RSS Feed | Feed Info