[Login] or [Signup]

First Cams

Xvid/x264



Non-English

Loading...

The Predator 2018 HC HDRip AAC 2.0 x264 [MW]


Complete Name :The Predator 2018 HC HDRip AAC 2.0 x264 [MW]
Download torrent:    The Predator 2018 HC HDRip AAC 2.0 x264 [MW].torrent
Info Hash:36aae2975532d94238534ffbee9ac65e0c4fbc50
Category:Movies  > h.264/x264
Torrent language:English  
Seeds | Leech:118 | 40
Complete: 1,200
Health:
Total Size:778.85 MB
Downloaded:10 Times
Added By:      MovieFreak
Date Added:09-11-2018 12:25:pm | Last Edit:  10-11-2018 03:30:pm

 

IMDB
The Predator
The Predator Released 14 Sep 2018

Genre Action, Adventure, Horror, Sci-Fi, Thriller

Director Shane Black

Writer Fred Dekker, Shane Black, Jim Thomas (based on characters created by), John Thomas (based on characters created by)

Actors Boyd Holbrook, Trevante Rhodes, Jacob Tremblay, Keegan-Michael Key

Plot When a young boy accidentally triggers the universe's most lethal hunters' return to Earth, only a ragtag crew of ex-soldiers and a disgruntled scientist can prevent the end of the human race.

Link http://www.imdb.com/title/tt3829266

Last Updated 16-11-2018 06:16:23
5.9

Votes 36,252

Main Technical Comments




General
Format                                   : Matroska
Format version                           : Version 4 / Version 2
File size                                : 779 MiB
Duration                                 : 1 h 46 min
Overall bit rate                         : 1 020 kb/s

Video
ID                                       : 1
Format                                   : AVC
Format/Info                              : Advanced Video Codec
Format profile                           : [email protected]
Format settings                          : CABAC / 4 Ref Frames
Format settings, CABAC                   : Yes
Format settings, RefFrames               : 4 frames
Codec ID                                 : V_MPEG4/ISO/AVC
Duration                                 : 1 h 46 min
Bit rate                                 : 900 kb/s
Width                                    : 720 pixels
Height                                   : 304 pixels
Display aspect ratio                     : 2.35:1
Frame rate mode                          : Constant
Frame rate                               : 30.000 FPS
Color space                              : YUV
Chroma subsampling                       : 4:2:0
Bit depth                                : 8 bits
Scan type                                : Progressive
Bits/(Pixel*Frame)                       : 0.137
Stream size                              : 691 MiB (89%)
Writing library                          : x264 core 155 r2901 7d0ff22
Default                                  : Yes
Forced                                   : No

Audio
ID                                       : 2
Format                                   : AAC
Format/Info                              : Advanced Audio Codec
Format profile                           : LC
Codec ID                                 : A_AAC-2
Duration                                 : 1 h 46 min
Bit rate                                 : 112 kb/s
Channel(s)                               : 2 channels
Channel positions                        : Front: L R
Sampling rate                            : 48.0 kHz
Frame rate                               : 46.875 FPS (1024 SPF)
Compression mode                         : Lossy
Stream size                              : 85.9 MiB (11%)
Language                                 : English
Default                                  : Yes
Forced                                   : No


https://pichub.site/image/Vop6k
https://pichub.site/image/Vo54Q
https://pichub.site/image/Vo6rd
https://pichub.site/image/VolCv
https://pichub.site/image/VoPQ9
https://pichub.site/image/VosNR

........................................................................


Loading...


Trackers:
udp://tracker.coppersurfer.tk:6969/announce

The Predator 2018 HC HDRip AAC 2.0 x264 [MW]
Files
The Predator 2018 HC HDRip AAC 2.0 x264 [MW].mkv778.85 MB


Similar Torrents
Type Name Size Added S L
Divx/Xvid The.Predator.2018.HC.HDRip.XviD.AC3-EVO
1.39 GB 2018-11-09 10:01:24 23989 8893
Cam/TS The Predator 2018 TS-1XBET
2.46 GB 2018-09-13 23:53:06 18591 8925
Cam/TS The Predator 2018 NEW 720p HDCAM-24HD
2.09 GB 2018-10-05 18:40:07 7904 2895
Cam/TS The Predator 2018.HDTS.XViD.AC3-ETRG
1.26 GB 2018-09-14 09:30:32 5401 2434
Dubs/Dual Audio The Predator 2018 720p HDTS x264 Dual Audio [Hindi...
1.17 GB 2018-09-15 12:08:11 3854 889
HD The Predator 2018 1080p HC HDRip x264 [MW]
1.81 GB 2018-11-11 20:04:14 3121 927
Cam/TS The Predator 2018 Movies HD TS x264 Clean Audio AA...
705.09 MB 2018-09-14 04:37:56 2514 1029
HD The.Predator.2018.1080p.HC.HDRip.X264.AC3-EVO[EtHD...
3.49 GB 2018-11-09 10:32:53 2367 928
Cam/TS The Predator 2018 NEW.HDCAM.XViD.AC3-ETRG
1.26 GB 2018-09-17 13:39:35 2251 817
Cam/TS The Predator 2018 NEW HDCAM V2 XViD AC3-ETRG
1.24 GB 2018-09-19 16:07:49 2108 849

Comments:
No comments still posted
Loading...
Powered by TT | Page Generated In 0.628265 secs.
| RSS Feed | Feed Info