[Login] or [Signup]

First Cams

Xvid/x264



Non-English

Loading...

Thugs of Hindostan 2018 Hindi 720p PRE DVDRip x264 [MW]


Complete Name :Thugs of Hindostan 2018 Hindi 720p PRE DVDRip x264 [MW]
Download torrent:    Thugs of Hindostan 2018 Hindi 720p PRE DVDRip x264 [MW].torrent
Info Hash:da4cb38c3df5d70835b5dcd5c22d1ffcbcb3f6ac
Category:Movies  > Non-English
Torrent language:Hindi  
Seeds | Leech:756 | 331
Complete: 4,080
Health:
Total Size:1.30 GB
Downloaded:11 Times
Added By:      MovieFreak
Date Added:09-11-2018 11:31:am | Last Edit:  10-11-2018 02:20:pm

 

IMDB
Thugs of Hindostan
Thugs of Hindostan Released 08 Nov 2018

Genre Action, Adventure

Director Vijay Krishna Acharya

Writer Vijay Krishna Acharya

Actors Aamir Khan, Katrina Kaif, Amitabh Bachchan, Fatima Sana Shaikh

Plot The film is set to treat audiences with the biggest jaw-dropping action sequences seen by audiences on screen to date. With its edge-of-the-seat thrills and an epic adventure and war on the seas, the film is set to light up this Diwali.

Link http://www.imdb.com/title/tt5970844

Last Updated 19-11-2018 16:33:44

Main Technical Comments




General
Format                                   : Matroska
Format version                           : Version 4 / Version 2
File size                                : 1.30 GiB
Duration                                 : 2 h 33 min
Overall bit rate                         : 1 211 kb/s

Video
ID                                       : 1
Format                                   : AVC
Format/Info                              : Advanced Video Codec
Format profile                           : [email protected]
Format settings                          : CABAC / 4 Ref Frames
Format settings, CABAC                   : Yes
Format settings, RefFrames               : 4 frames
Codec ID                                 : V_MPEG4/ISO/AVC
Duration                                 : 2 h 33 min
Bit rate                                 : 1 100 kb/s
Width                                    : 1 280 pixels
Height                                   : 560 pixels
Display aspect ratio                     : 2.25:1
Frame rate mode                          : Constant
Frame rate                               : 25.000 FPS
Color space                              : YUV
Chroma subsampling                       : 4:2:0
Bit depth                                : 8 bits
Scan type                                : Progressive
Bits/(Pixel*Frame)                       : 0.061
Stream size                              : 1.18 GiB (91%)
Writing library                          : x264 core 155 r2901 7d0ff22
Default                                  : Yes
Forced                                   : No

Audio
ID                                       : 2
Format                                   : AAC
Format/Info                              : Advanced Audio Codec
Format profile                           : LC
Codec ID                                 : A_AAC-2
Duration                                 : 2 h 32 min
Bit rate                                 : 111 kb/s
Channel(s)                               : 2 channels
Channel positions                        : Front: L R
Sampling rate                            : 48.0 kHz
Frame rate                               : 46.875 FPS (1024 SPF)
Compression mode                         : Lossy
Stream size                              : 121 MiB (9%)
Language                                 : Hindi
Default                                  : Yes
Forced                                   : No


https://pichub.site/image/Vom4g
https://pichub.site/image/VoGLX
https://pichub.site/image/VoNQ8
https://pichub.site/image/Vov7J
https://pichub.site/image/VoxG5
https://pichub.site/image/Vo0Zh

........................................................................


Loading...


Trackers:
udp://tracker.coppersurfer.tk:6969/announce

Thugs of Hindostan 2018 Hindi 720p PRE DVDRip x264 [MW]
Files
Thugs of Hindostan 2018 Hindi 720p PRE DVDRip x264 [MW].mkv1.30 GB


Similar Torrents
Type Name Size Added S L
h.264/x264 Thugs of Hindostan (2018) Hindi pDVDRip x264 700Mi...
716.67 MB 2018-11-08 16:21:19 2982 2943
h.264/x264 Thugs of Hindostan (2018) New Source Desi PerDVDRi...
1.23 GB 2018-11-10 09:15:04 2239 1649
Divx/Xvid Thugs of Hindostan (2018) NEW PerDVDRip Bollywood ...
776.72 MB 2018-11-09 07:43:26 1463 985
Non-English Thugs of Hindostan 2018 PreDvd V2 Hindi 720p x264 ...
1.20 GB 2018-11-10 05:58:32 1215 875
h.264/x264 Thugs of Hindostan (2018) NEW PerDVDRip x264 Bolly...
1.30 GB 2018-11-09 07:31:34 842 533
h.264/x264 Thugs of Hindostan (2018) PerDVDRip x264 Bollywood...
780.68 MB 2018-11-08 14:31:22 772 685
Non-English Thugs of Hindostan 2018 Hindi 720p HDCAM x264 MP3 ...
2.22 GB 2018-11-08 17:43:39 665 335
h.264/x264 Thugs of Hindostan (2018) New Source Desi PerDVDRi...
714.43 MB 2018-11-10 09:23:16 503 184
h.264/x264 Thugs of Hindostan 2018 Hindi 720p PRE-DVDRip x264...
1.33 GB 2018-11-08 15:33:06 490 324
Cam/TS Thugs of Hindostan (2018) 720p Hindi Pre-DVDRip x2...
1.36 GB 2018-11-12 10:20:39 439 207

Comments:
No comments still posted
Loading...
Powered by TT | Page Generated In 0.269623 secs.
| RSS Feed | Feed Info