[Login] or [Signup]

First Cams

Xvid/x264



Non-English

Loading...

A Wednesday (2008) Hindi 720p WEB-DL AVC AC3 5.1 ESubs-Sun George


Complete Name :A Wednesday (2008) Hindi 720p WEB-DL AVC AC3 5.1 ESubs-Sun George
Download torrent:    A Wednesday (2008) Hindi 720p WEB-DL AVC AC3 5.1 ESubs-Sun George.torrent
Info Hash:8b07720e189e1eb09e7babc78ee8a6cc503deb00
Category:Movies  > h.264/x264
Torrent language:Hindi  
Seeds | Leech:66 | 102
Complete: 288
Health:
Total Size:1.41 GB
Downloaded:10 Times
Added By:      sungeorge
Date Added:09-11-2018 10:30:am | Last Edit:  10-11-2018 01:20:pm

 

IMDB
A Wednesday
A Wednesday Released 05 Sep 2008

Genre Crime, Drama, Mystery

Director Neeraj Pandey

Writer Neeraj Pandey (story), Neeraj Pandey (script)

Actors Anupam Kher, Naseeruddin Shah, Jimmy Sheirgill, Deepal Shaw

Plot A retiring police officer reminisces about the most astounding day of his career. About a case that was never filed but continues to haunt him in his memories - the case of a man and a Wednesday.

Link http://www.imdb.com/title/tt1280558

Last Updated 19-11-2018 21:38:42
8.2

Votes 64,228

Main Technical Comments
A Wednesday (2008) Hindi 720p WEB-DL AVC AC3 5.1 ESubs-Sun George


https://www.imdb.com/title/tt1280558/





===================================================================

General
Format                                   : Matroska
Format version                           : Version 4 / Version 2
File size                                : 1.38 GiB
Duration                                 : 1 h 43 min
Overall bit rate                         : 1 904 kb/s
Movie name : A Wednesday (2008) Hindi 720p WEB-DL AVC AC3 5.1 ESubs-Sun George

===================================================================

Video
ID                                       : 1
Format                                   : AVC
Format/Info                              : Advanced Video Codec
Format profile                           : [email protected]
Format settings                          : CABAC / 4 Ref Frames
Format settings, CABAC                   : Yes
Format settings, RefFrames               : 4 frames
Codec ID                                 : V_MPEG4/ISO/AVC
Duration                                 : 1 h 43 min
Bit rate                                 : 1 519 kb/s
Width                                    : 1 280 pixels
Height                                   : 720 pixels
Display aspect ratio                     : 16:9
Frame rate mode                          : Variable
Frame rate                               : 23.976 FPS
Color space                              : YUV
Chroma subsampling                       : 4:2:0
Bit depth                                : 8 bits
Scan type                                : Progressive
Bits/(Pixel*Frame)                       : 0.069
Stream size                              : 1.10 GiB (80%)
Title                                    : Sun George

===================================================================

Audio
ID                                       : 3
Format                                   : AC-3
Format/Info                              : Audio Coding 3
Codec ID                                 : A_AC3
Duration                                 : 1 h 43 min
Bit rate mode                            : Constant
Bit rate                                 : 384 kb/s
Channel(s)                               : 6 channels
Channel positions                        : Front: L C R, Side: L R, LFE
Sampling rate                            : 48.0 kHz
Frame rate                               : 31.250 FPS (1536 SPF)
Bit depth                                : 16 bits
Compression mode                         : Lossy
Stream size                              : 284 MiB (20%)
Title                                    : Sun George
Language                                 : Hindi
Service kind                             : Complete Main
Default                                  : No
Forced                                   : No

Text
ID                                       : 2
Format                                   : ASS
Codec ID                                 : S_TEXT/ASS
Codec ID/Info                            : Advanced Sub Station Alpha
Duration                                 : 1 h 37 min
Bit rate                                 : 88 b/s
Count of elements                        : 1057
Compression mode                         : Lossless
Stream size                              : 63.3 KiB (0%)
Title                                    : Sun George
Writing library                          : Lavc57.42.100 ssa
Language                                 : English
Default                                  : Yes
Forced                                   : Yes












........................................................................


Loading...


Trackers:
udp://tracker.publicbt.com:80/announce

A Wednesday (2008) Hindi 720p WEB-DL AVC AC3 5.1 ESubs-Sun George
Files
A Wednesday (2008) Hindi 720p WEB-DL AVC AC3 5.1 ESubs-Sun George.mkv1.38 GB
INFO.NFO55.00 B
Sample A Wednesday (2008) Hindi 720p WEB-DL AVC AC3 5.1 ESubs-Sun George.mkv30.97 MB


Comments:
No comments still posted
Loading...
Powered by TT | Page Generated In 0.677167 secs.
| RSS Feed | Feed Info