[Login] or [Signup]

First Cams

Xvid/x264



Non-English

Loading...

Mr & Mrs 420 Returns 2018 x264 720p SD Punjabi GOPISAHI


Complete Name :Mr & Mrs 420 Returns 2018 x264 720p SD Punjabi GOPISAHI
Download torrent:    Mr & Mrs 420 Returns 2018 x264 720p SD Punjabi GOPISAHI.torrent
Info Hash:459a6924d6a23fd67c4ec8bcbdfec159de746a78
Category:Movies  > HD
Torrent language:Other  
Seeds | Leech:1,176 | 826
Complete: 5,909
Health:
Total Size:664.11 MB
Downloaded:16 Times
Added By:      GOPISAHI
Date Added:09-11-2018 09:36:am | Last Edit:  10-11-2018 12:06:pm

 

Main Technical Comments
https://www.gopisahi.pw/

Format                         : Matroska
Format version                 : Version 4 / Version 2
File size                      : 664 MiB
Duration                       : 2 h 13 min
Overall bit rate               : 697 kb/s
Movie name                     : Mr & Mrs 420 Returns 2018 GOPISAHI

Video
Format                         : AVC
Codec ID                       : V_MPEG4/ISO/AVC
Duration                       : 2 h 13 min
Bit rate                       : 599 kb/s
Width                          : 1 280 pixels
Height                         : 534 pixels
Display aspect ratio           : 2.40:1
Frame rate mode                : Constant
Frame rate                     : 25.000 FPS
Color space                    : YUV
Chroma subsampling             : 4:2:0
Bit depth                      : 8 bits
Scan type                      : Progressive
Bits/(Pixel*Frame)             : 0.035
Stream size                    : 570 MiB (86%)
Title                          : GOPISAHI
Writing library                : x264 core 155 r2901 7d0ff22

Audio
Format                         : AAC
Format/Info                    : Advanced Audio Codec
Duration                       : 2 h 13 min
Bit rate                       : 96.0 kb/s
Channel(s)                     : 2 channels
Channel positions              : Front: L R
Sampling rate                  : 48.0 kHz
Frame rate                     : 46.875 FPS (1024 SPF)
Compression mode               : Lossy
Delay relative to video        : -21 ms
Stream size                    : 91.7 MiB (14%)
Title                          : GOPISAHI
Language                       : Panjabi


........................................................................


Loading...


Trackers:
udp://tracker.coppersurfer.tk:6969/announce

Mr & Mrs 420 Returns 2018 x264 720p SD Punjabi GOPISAHI
Files
Mr & Mrs 420 Returns 2018 x264 720p SD Punjabi GOPISAHI.mkv664.11 MB


Similar Torrents
Type Name Size Added S L
Ebooks The Little Book of Mr & Mrs Questions - The Ul...
3.78 MB 2018-05-21 13:47:25 948 73
HD Mr & Mrs 420 Returns (2018) 720p Punjabi HDRip...
664.11 MB 2018-11-14 12:06:49 841 394

Comments:
No comments still posted
Loading...
Powered by TT | Page Generated In 0.049940 secs.
| RSS Feed | Feed Info