[Login] or [Signup]

First Cams

Xvid/x264



Non-English

Loading...

Laila Majnu 2018 Hindi 720p HDRip x264 AAC { TaRa }.mkv


Complete Name :Laila Majnu 2018 Hindi 720p HDRip x264 AAC { TaRa }.mkv
Download torrent:    Laila Majnu 2018 Hindi 720p HDRip x264 AAC { TaRa }.mkv.torrent
Info Hash:e2053a49bbd829d695b79b9b8ffab3fac54de01d
Category:Movies  > HD
Torrent language:Hindi  
Seeds | Leech:319 | 193
Complete: 1,917
Health:
Total Size:1.29 GB
Downloaded:11 Times
Added By:      SkTaRa
Date Added:09-11-2018 06:36:am | Last Edit:  10-11-2018 08:32:am

 
IMDB
Laila Majnu
Laila Majnu Released 07 Sep 2018

Genre Drama, Romance

Director Sajid Ali

Writer Imtiaz Ali, Sajid Ali

Actors Avinash Tiwary, Tripti Dimri, Sumit Kaul, Abrar Qazi

Plot Taking the leap out of the classic folklore, the story is set in today's time in Kashmir where Laila Majnu have problems relevant to the youth of today. While dealing with their feuding families a passionate love story unravels.

Link http://www.imdb.com/title/tt8011276

Last Updated 12-11-2018 19:50:43
8.3

Votes 433

Main Technical Comments

Laila Majnu 2018 Hindi 720p HDRip x264 AAC { TaRa }.mkv


===================================================================
General
Complete name               : Laila Majnu 2018 Hindi 720p HDRip x264 AAC { TaRa }.mkv
Format                      : Matroska
Format version              : Version 4
File size                   : 1.29 GiB
Duration                    : 2 h 12 min
Overall bit rate            : 1 393 kb/s
===================================================================
Video
ID                          : 1
Format                      : AVC
Format/Info                 : Advanced Video Codec
Format profile              : [email protected]
Format settings             : CABAC / 4 Ref Frames
Format settings, CABAC      : Yes
Format settings, ReFrames   : 4 frames
Codec ID                    : V_MPEG4/ISO/AVC
Duration                    : 2 h 12 min
Bit rate                    : 1 266 kb/s
Width                       : 1 280 pixels
Height                      : 544 pixels
Display aspect ratio        : 2.35:1
Frame rate mode             : Constant
Frame rate                  : 25.000 FPS
Color space                 : YUV
Chroma subsampling          : 4:2:0
Bit depth                   : 8 bits
Scan type                   : Progressive
Bits/(Pixel*Frame)          : 0.073
Stream size                 : 1.17 GiB (91%)
Title                       : .....::::: TaRa :::::.....
Language                    : Hindi
Default                     : Yes
Forced                      : No
===================================================================
Audi=
ID                          : 2
Format                      : AAC LC
Format/Info                 : Advanced Audio Codec Low Complexity
Codec ID                    : A_AAC-2
Duration                    : 2 h 12 min
Bit rate                    : 125 kb/s
Channel(s)                  : 2 channels
Channel layout              : L R
Sampling rate               : 48.0 kHz
Frame rate                  : 46.875 FPS (1024 SPF)
Compression mode            : Lossy
Delay relative to video     : -21 ms
Stream size                 : 118 MiB (9%)
Title                       : .....::::: TaRa :::::.....
Language                    : Hindi
Default                     : Yes
Forced                      : No
===================================================================







































........................................................................


Loading...


Trackers:
udp://tracker.coppersurfer.tk:6969/announce

Laila Majnu 2018 Hindi 720p HDRip x264 AAC { TaRa }.mkv
Files
778299a1066c4cd2a588d7235c6603ee.md.jpg138.99 kB
Laila Majnu 2018 Hindi 720p HDRip x264 AAC { TaRa }.mkv1.29 GB
Laila-Majnu-644x362.jpg47.83 kB
Torrent TaRa Digital Team PC Info.nfo6.53 kB
Torrent TaRa Digital Team.txt639.00 B


Similar Torrents
Type Name Size Added S L
HD Laila Majnu (2018) [HINDI - 720p - WEB HDRip - x26...
2.00 GB 2018-11-09 13:24:54 935 723
Non-English Laila Majnu 2018 WebRip Hindi 720p x264 AAC - mkvC...
1.06 GB 2018-11-09 11:16:23 563 507
h.264/x264 Laila Majnu (2018) Hindi 720p HDRip x264 AAC - Dow...
1.01 GB 2018-11-09 00:44:05 455 176
HD Laila Majnu 2018 HDRip x264 Hindi AAC 300Mb [220x]
382.84 MB 2018-11-10 23:24:57 433 54
HD Laila Majnu 2018 x264 720p HD Hindi GOPISAHI
658.06 MB 2018-11-10 05:12:17 361 137
Non-English Laila.Majnu.2018.Hindi.720p.HDRip.x264.AC3.-.Hon3y...
3.00 GB 2018-11-09 21:52:22 336 289
Non-English Laila.Majnu.2018.Hindi.720p.HDRip.x264.AAC.-.Hon3y...
1.20 GB 2018-11-09 02:23:00 322 59
Non-English Laila Majnu 2018 Hindi 1080p WEB-DL x264 [MW]
1.83 GB 2018-11-11 13:10:15 280 212
h.264/x264 Laila Majnu (2018) Hindi 720p WEB-HD AVC AAC-Sun G...
1.41 GB 2018-11-09 16:29:57 220 251
HD Laila Majnu (2018) Hindi Original HDRip AAC Bollyw...
665.33 MB 2018-11-09 04:18:44 216 130

Comments:
No comments still posted
Loading...
Powered by TT | Page Generated In 0.618489 secs.
| RSS Feed | Feed Info