[Login] or [Signup]


Warning! Use a VPN When Downloading Torrents!
Your IP Address is .   Location is
Your Internet Provider is tracking your torrent activity!  Hide your IP ADDRESS with a VPN!
We strongly recommend using ExpressVPN to anonymize your torrenting. 30 Day Money Back Guarantee!
Try it Now!
First Cams

Xvid/x264



Non-English

Site Friends
      ETTV

      WorldWide Torrents

      Free Tutorials

      Aiosearch


Loading...

Incredibles 2 (2018) x 1600 (2160p) HDR 5.1 x265 10bit Phun Psyz


Complete Name :Incredibles 2 (2018) x 1600 (2160p) HDR 5.1 x265 10bit Phun Psyz
Download torrent:    Incredibles 2 (2018) x 1600 (2160p) HDR 5.1 x265 10bit Phun Psyz.torrent
Info Hash:b8222eebad095828494d2da09055dec978a1a60a
Category:Movies  > 4K
Torrent language:English  
Seeds | Leech:282 | 108
Complete: 1,062
Health:
Total Size:2.47 GB
Added By:      phunpsyz
Date Added:08-11-2018 05:23:pm | Last Edit:  27-01-2019 02:01:am

 

IMDB
Incredibles 2
Incredibles 2 Released 15 Jun 2018

Genre Animation, Action, Adventure, Comedy, Family, Sci-Fi

Director Brad Bird

Writer Brad Bird

Actors Craig T. Nelson, Holly Hunter, Sarah Vowell, Huck Milner

Plot The Incredibles hero family takes on a new mission, which involves a change in family roles: Bob Parr (Mr Incredible) must manage the house while his wife Helen (Elastigirl) goes out to save the world.

Link http://www.imdb.com/title/tt3606756

Last Updated 22-03-2019 02:43:07
7.7

Votes 185,186

Main Technical Comments
www.imdb.com/title/tt3606756/

Bob Parr (Mr. Incredible) is left to care for the kids while Helen (Elastigirl) is out saving the world.

Source: FGT 4K Remux







Format                      : Matroska
Format version              : Version 4 / Version 2
File size                   : 2.47 GiB
Duration                    : 1 h 57 min
Overall bit rate            : 3 003 kb/s

Video
ID                          : 1
Format                      : HEVC
Format/Info                 : High Efficiency Video Coding
Format profile              : Main [email protected]@High
Codec ID                    : V_MPEGH/ISO/HEVC
Duration                    : 1 h 57 min
Bit rate                    : 2 623 kb/s
Width                       : 3 840 pixels
Height                      : 1 600 pixels
Display aspect ratio        : 2.40:1
Frame rate mode             : Constant
Frame rate                  : 23.976 (24000/1001) FPS
Color space                 : YUV
Chroma subsampling          : 4:2:0
Bit depth                   : 10 bits
Bits/(Pixel*Frame)          : 0.018
Stream size                 : 2.16 GiB (87%)
Writing library             : x265 2.6:[Windows][GCC 7.1.0][64 bit] 10bit

Audio
ID                          : 2
Format                      : AC-3
Format/Info                 : Audio Coding 3
Commercial name             : Dolby Digital
Codec ID                    : A_AC3
Duration                    : 1 h 57 min
Bit rate mode               : Constant
Bit rate                    : 320 kb/s
Channel(s)                  : 6 channels
Channel layout              : L R C LFE Ls Rs
Sampling rate               : 48.0 kHz
Frame rate                  : 31.250 FPS (1536 SPF)
Bit depth                   : 16 bits
Compression mode            : Lossy
Stream size                 : 270 MiB (11%)
Title                       : Surround
Language                    : English

Text
Language                    : English
Language                    : French
Language                    : Spanish
Default                     : No
Forced                      : No
........................................................................


Loading...


Trackers:
udp://tracker.opentrackr.org:1337/announce

Incredibles 2 (2018) x 1600 (2160p) HDR 5.1 x265 10bit Phun Psyz
Files
Incredibles 2 (2018) x 1600 (2160p) HDR 5.1 x265 10bit Phun Psyz.mkv --- 2.47 GB


Similar Torrents
Type Name Size Added S L
h.264/x264 Incredibles 2 2018 720p WEB-DL-1XBET
2.41 GB 2018-10-22 10:07:26 14089 3358
Cam/TS The Incredibles 2 2018.HDCAM.XViD.AC3-ETRG
1.25 GB 2018-06-17 17:14:32 13824 4484
Cam/TS Incredibles 2.2018.HDTC.XViD.AC3-ETRG
1.31 GB 2018-07-13 10:15:43 11046 3623
Cam/TS Incredibles 2 2018 720p HD-TC X264 AC3-24HD
2.67 GB 2018-08-22 17:28:53 9688 3983
Divx/Xvid The.Incredibles.2.2018.HDRip.XviD.AC3-EVO
1.21 GB 2018-10-22 17:19:28 9343 2548
Video VogoV 19 02 01 Abella Danger Incredible Anal Cares...
277.58 MB 2019-02-02 12:18:33 5652 1874
HD Incredibles.2.2018.1080p.WEB-DL.DD5.1.H264-CMRG[Et...
4.02 GB 2018-10-22 16:49:21 5482 1643
h.264/x264 Incredibles 2 2018 720p HDTC x264 [MW]
1.16 GB 2018-07-15 15:43:25 3592 649
Cam/TS Incredibles 2 2018 NEW HDCAM X264-CPG
1.82 GB 2018-06-17 13:47:18 3363 780
Cam/TS The Incredibles 2 2018 FULL HDCAM x264-24HD
1.95 GB 2018-06-26 17:29:27 2001 745

Comments:
No comments still posted
Loading...
Powered by TT | Page Generated In 0.592103 secs.
| RSS Feed | Feed Info