[Login] or [Signup]

First Cams

Xvid/x264



Non-English

Loading...

Thugs of Hindostan 2018 Hindi 720p PRE-DVDRip x264 AAC { TaRa }.mkv


Complete Name :Thugs of Hindostan 2018 Hindi 720p PRE-DVDRip x264 AAC { TaRa }.mkv
Download torrent:    Thugs of Hindostan 2018 Hindi 720p PRE-DVDRip x264 AAC { TaRa }.mkv.torrent
Info Hash:f4863135f20a19713a6b5ee7f3ec5e3125c28b83
Category:Movies  > h.264/x264
Torrent language:Hindi  
Seeds | Leech:490 | 324
Complete: 7,737
Health:
Total Size:1.33 GB
Downloaded:17 Times
Added By:      SkTaRa
Date Added:08-11-2018 03:33:pm | Last Edit:  09-11-2018 06:45:pm

 

IMDB
Thugs of Hindostan
Thugs of Hindostan Released 08 Nov 2018

Genre Action, Adventure

Director Vijay Krishna Acharya

Writer Vijay Krishna Acharya

Actors Aamir Khan, Katrina Kaif, Amitabh Bachchan, Fatima Sana Shaikh

Plot The film is set to treat audiences with the biggest jaw-dropping action sequences seen by audiences on screen to date. With its edge-of-the-seat thrills and an epic adventure and war on the seas, the film is set to light up this Diwali.

Link http://www.imdb.com/title/tt5970844

Last Updated 16-11-2018 22:27:33

Main Technical Comments

Thugs of Hindostan 2018 Hindi 720p PRE-DVDRip x264 AAC { TaRa }.mkv


===================================================================
General
Complete name               : Thugs of Hindostan 2018 Hindi 720p PRE-DVDRip x264 AAC { TaRa }.mkv
Format                      : Matroska
Format version              : Version 4
File size                   : 1.33 GiB
Duration                    : 2 h 30 min
Overall bit rate            : 1 264 kb/s
===================================================================
Video
ID                          : 1
Format                      : AVC
Format/Info                 : Advanced Video Codec
Format profile              : [email protected]
Format settings             : CABAC / 4 Ref Frames
Format settings, CABAC      : Yes
Format settings, ReFrames   : 4 frames
Codec ID                    : V_MPEG4/ISO/AVC
Duration                    : 2 h 30 min
Bit rate                    : 1 181 kb/s
Nominal bit rate            : 1 498 kb/s
Width                       : 1 280 pixels
Height                      : 544 pixels
Display aspect ratio        : 2.35:1
Frame rate mode             : Variable
Frame rate                  : 23.976 (24000/1001) FPS
Color space                 : YUV
Chroma subsampling          : 4:2:0
Bit depth                   : 8 bits
Scan type                   : Progressive
Bits/(Pixel*Frame)          : 0.071
Stream size                 : 1.24 GiB (93%)
Title                       : .....::::: TaRa :::::.....
Language                    : Hindi
Default                     : Yes
Forced                      : No
===================================================================
Audio
ID                          : 2
Format                      : AAC LC
Format/Info                 : Advanced Audio Codec Low Complexity
Codec ID                    : A_AAC-2
Duration                    : 2 h 30 min
Bit rate                    : 80.3 kb/s
Channel(s)                  : 2 channels
Channel layout              : L R
Sampling rate               : 44.1 kHz
Frame rate                  : 43.066 FPS (1024 SPF)
Compression mode            : Lossy
Delay relative to video     : -23 ms
Stream size                 : 86.6 MiB (6%)
Title                       : .....::::: TaRa :::::.....
Language                    : Hindi
Default                     : Yes
Forced                      : No
===================================================================
































........................................................................


Loading...


Trackers:
udp://tracker.coppersurfer.tk:6969/announce

Thugs of Hindostan 2018 Hindi 720p PRE-DVDRip x264 AAC { TaRa }.mkv
Files
1541650008_who-were-thugs-hindostan.jpg117.44 kB
6361bd41e771c0a6bd0f04c560282bd7.jpg140.25 kB
Thugs of Hindostan 2018 Hindi 720p PRE-DVDRip x264 AAC { TaRa }.mkv1.33 GB
Torrent TaRa Digital Team PC Info.nfo6.53 kB
Torrent TaRa Digital Team.txt639.00 B


Similar Torrents
Type Name Size Added S L
h.264/x264 Thugs of Hindostan (2018) Hindi pDVDRip x264 700Mi...
716.67 MB 2018-11-08 16:21:19 2982 2943
h.264/x264 Thugs of Hindostan (2018) New Source Desi PerDVDRi...
1.23 GB 2018-11-10 09:15:04 2239 1649
Divx/Xvid Thugs of Hindostan (2018) NEW PerDVDRip Bollywood ...
776.72 MB 2018-11-09 07:43:26 1463 985
Non-English Thugs of Hindostan 2018 PreDvd V2 Hindi 720p x264 ...
1.20 GB 2018-11-10 05:58:32 1215 875
h.264/x264 Thugs of Hindostan (2018) NEW PerDVDRip x264 Bolly...
1.30 GB 2018-11-09 07:31:34 842 533
h.264/x264 Thugs of Hindostan (2018) PerDVDRip x264 Bollywood...
780.68 MB 2018-11-08 14:31:22 772 685
Non-English Thugs of Hindostan 2018 Hindi 720p PRE DVDRip x264...
1.30 GB 2018-11-09 11:31:00 756 331
Non-English Thugs of Hindostan 2018 Hindi 720p HDCAM x264 MP3 ...
2.22 GB 2018-11-08 17:43:39 665 335
h.264/x264 Thugs of Hindostan (2018) New Source Desi PerDVDRi...
714.43 MB 2018-11-10 09:23:16 503 184
Cam/TS Thugs of Hindostan (2018) 720p Hindi Pre-DVDRip x2...
1.36 GB 2018-11-12 10:20:39 439 207

Comments:
No comments still posted
Loading...
Powered by TT | Page Generated In 0.276911 secs.
| RSS Feed | Feed Info