[Login] or [Signup]

First Cams

Xvid/x264



Non-English

Loading...

Woh Lamhe (2006) Hindi 720p WEB-DL AVC AC3 ESubs-Sun George (Requested)


Complete Name :Woh Lamhe (2006) Hindi 720p WEB-DL AVC AC3 ESubs-Sun George (Requested)
Download torrent:    Woh Lamhe (2006) Hindi 720p WEB-DL AVC AC3 ESubs-Sun George (Requested).torrent
Info Hash:0299da550a475b7292397795475b0632f8dea687
Category:Movies  > h.264/x264
Torrent language:Hindi  
Seeds | Leech:116 | 89
Complete: 412
Health:
Total Size:1.29 GB
Downloaded:11 Times
Added By:      sungeorge
Date Added:08-11-2018 10:33:am | Last Edit:  09-11-2018 03:17:pm

 

IMDB
Woh Lamhe
Woh Lamhe Released 29 Sep 2006

Genre Biography, Drama, Romance

Director Mohit Suri

Writer Mahesh Bhatt (story), Shagufta Rafique

Actors Kangana Ranaut, Shiney Ahuja, Shaad Randhawa, Purab Kohli

Plot Based upon the life of actress Parveen Babi, this film describes the life of a schizophrenic actress Sana Azim, and the love of her life - Aditya Garewal.

Link http://www.imdb.com/title/tt0833561

Last Updated 16-11-2018 05:55:55
6.7

Votes 973

Main Technical Comments
Woh Lamhe (2006) Hindi 720p WEB-DL AVC AC3 ESubs-Sun George (Requested)


https://www.imdb.com/title/tt0833561/





===================================================================

General
Format                                   : Matroska
Format version                           : Version 4 / Version 2
File size                                : 1.27 GiB
Duration                                 : 2 h 10 min
Overall bit rate                         : 1 396 kb/s
Movie name : Woh Lamhe (2006) Hindi 720p WEB-DL AVC AC3 ESubs-Sun George (Requested)

===================================================================

Video
ID                                       : 1
Format                                   : AVC
Format/Info                              : Advanced Video Codec
Format profile                           : [email protected]
Format settings                          : CABAC / 5 Ref Frames
Format settings, CABAC                   : Yes
Format settings, RefFrames               : 5 frames
Codec ID                                 : V_MPEG4/ISO/AVC
Duration                                 : 2 h 10 min
Bit rate                                 : 1 200 kb/s
Width                                    : 1 280 pixels
Height                                   : 720 pixels
Display aspect ratio                     : 16:9
Frame rate mode                          : Constant
Frame rate                               : 29.970 (30000/1001) FPS
Color space                              : YUV
Chroma subsampling                       : 4:2:0
Bit depth                                : 8 bits
Scan type                                : Progressive
Bits/(Pixel*Frame)                       : 0.043
Stream size                              : 1.09 GiB (86%)
Title                                    : Sun George

===================================================================

Audio
ID                                       : 2
Format                                   : AC-3
Format/Info                              : Audio Coding 3
Codec ID                                 : A_AC3
Duration                                 : 2 h 10 min
Bit rate mode                            : Constant
Bit rate                                 : 192 kb/s
Channel(s)                               : 2 channels
Channel positions                        : Front: L R
Sampling rate                            : 48.0 kHz
Frame rate                               : 31.250 FPS (1536 SPF)
Bit depth                                : 16 bits
Compression mode                         : Lossy
Stream size                              : 179 MiB (14%)
Title                                    : Sun George
Language                                 : Hindi
Service kind                             : Complete Main
Default                                  : Yes
Forced                                   : No











........................................................................


Loading...


Trackers:
udp://tracker.publicbt.com:80/announce

Woh Lamhe (2006) Hindi 720p WEB-DL AVC AC3 ESubs-Sun George (Requested)
Files
INFO.NFO55.00 B
Sample Woh Lamhe (2006) Hindi 720p WEB-DL AVC AC3 ESubs-Sun George (Requested).mkv20.49 MB
Woh Lamhe (2006) Hindi 720p WEB-DL AVC AC3 ESubs-Sun George (Requested).mkv1.27 GB


Comments:

<< Previous      Next >>
1 - 1

[Report] Posted: 09-11-2018 at 20:14:20
ismails124



[/b][b]

1 - 1
<< Previous      Next >>

Loading...
Powered by TT | Page Generated In 0.541034 secs.
| RSS Feed | Feed Info