[Login] or [Signup]

First Cams

Xvid/x264



Non-English

Loading...

Satyagraha (2013) Hindi 720p WEB-DL AVC AC3 5.1 ESubs-Sun George


Complete Name :Satyagraha (2013) Hindi 720p WEB-DL AVC AC3 5.1 ESubs-Sun George
Download torrent:    Satyagraha (2013) Hindi 720p WEB-DL AVC AC3 5.1 ESubs-Sun George.torrent
Info Hash:e6245e46533f0a26da62765dc00bf8ab140da468
Category:Movies  > h.264/x264
Torrent language:Hindi  
Seeds | Leech:189 | 129
Complete: 608
Health:
Total Size:1.43 GB
Downloaded:12 Times
Added By:      sungeorge
Date Added:08-11-2018 10:14:am | Last Edit:  09-11-2018 03:20:pm

 

IMDB
Satyagraha
Satyagraha Released 30 Aug 2013

Genre Drama

Director Prakash Jha

Writer Ram Goutam (script supervisor), Prakash Jha, Anjum Rajabali

Actors Amitabh Bachchan, Kareena Kapoor, Ajay Devgn, Manoj Bajpayee

Plot A corporate go-getter sees his priorities shift when a personal tragedy brings him face-to-face with political corruption.

Link http://www.imdb.com/title/tt2275802

Last Updated 19-11-2018 21:38:36
6.0

Votes 4,413

Main Technical Comments
Satyagraha (2013) Hindi 720p WEB-DL AVC AC3 5.1 ESubs-Sun George


https://www.imdb.com/title/tt2275802/





===================================================================

General
Format                                   : Matroska
Format version                           : Version 4 / Version 2
File size                                : 1.41 GiB
Duration                                 : 2 h 26 min
Overall bit rate                         : 1 383 kb/s
Movie name : Satyagraha (2013) Hindi 720p WEB-DL AVC AC3 5.1 ESubs-Sun George

===================================================================

Video
ID                                       : 1
Format                                   : AVC
Format/Info                              : Advanced Video Codec
Format profile                           : [email protected]
Format settings                          : CABAC / 5 Ref Frames
Format settings, CABAC                   : Yes
Format settings, RefFrames               : 5 frames
Codec ID                                 : V_MPEG4/ISO/AVC
Duration                                 : 2 h 26 min
Bit rate                                 : 1 000 kb/s
Width                                    : 1 280 pixels
Height                                   : 720 pixels
Display aspect ratio                     : 16:9
Frame rate mode                          : Constant
Frame rate                               : 25.000 FPS
Color space                              : YUV
Chroma subsampling                       : 4:2:0
Bit depth                                : 8 bits
Scan type                                : Progressive
Bits/(Pixel*Frame)                       : 0.043
Stream size                              : 1.02 GiB (72%)
Title                                    : Sun George

===================================================================

Audio
ID                                       : 2
Format                                   : AC-3
Format/Info                              : Audio Coding 3
Codec ID                                 : A_AC3
Duration                                 : 2 h 26 min
Bit rate mode                            : Constant
Bit rate                                 : 384 kb/s
Channel(s)                               : 6 channels
Channel positions                        : Front: L C R, Side: L R, LFE
Sampling rate                            : 48.0 kHz
Frame rate                               : 31.250 FPS (1536 SPF)
Bit depth                                : 16 bits
Compression mode                         : Lossy
Stream size                              : 402 MiB (28%)
Title                                    : Sun George
Language                                 : Hindi
Service kind                             : Complete Main
Default                                  : No
Forced                                   : No

Text
ID                                       : 3
Format                                   : UTF-8
Codec ID                                 : S_TEXT/UTF8
Codec ID/Info                            : UTF-8 Plain Text
Duration                                 : 2 h 20 min
Bit rate                                 : 71 b/s
Count of elements                        : 2024
Stream size                              : 74.1 KiB (0%)
Title                                    : Sun George
Language                                 : English
Default                                  : Yes
Forced                                   : Yes













........................................................................


Loading...


Trackers:
udp://tracker.publicbt.com:80/announce

Satyagraha (2013) Hindi 720p WEB-DL AVC AC3 5.1 ESubs-Sun George
Files
INFO.NFO55.00 B
Sample Satyagraha (2013) Hindi 720p WEB-DL AVC AC3 5.1 ESubs-Sun George.mkv20.18 MB
Satyagraha (2013) Hindi 720p WEB-DL AVC AC3 5.1 ESubs-Sun George.mkv1.41 GB


Comments:
No comments still posted
Loading...
Powered by TT | Page Generated In 0.270414 secs.
| RSS Feed | Feed Info