[Login] or [Signup]

First Cams

Xvid/x264



Non-English

Loading...

Hate Story 2012 Hindi 720p WEB-DL X264 AAC { TaRa }.mkv


Complete Name :Hate Story 2012 Hindi 720p WEB-DL X264 AAC { TaRa }.mkv
Download torrent:    Hate Story 2012 Hindi 720p WEB-DL X264 AAC { TaRa }.mkv.torrent
Info Hash:fe4661ac3c9701f78137a1a4d1d697c133708e13
Category:Movies  > HD
Torrent language:Hindi  
Seeds | Leech:58 | 44
Complete: 406
Health:
Total Size:958.33 MB
Downloaded:12 Times
Added By:      SkTaRa
Date Added:08-11-2018 08:04:am | Last Edit:  09-11-2018 12:03:pm

 

IMDB
Hate Story
Hate Story Released 20 Apr 2012

Genre Drama, Thriller

Director Vivek Agnihotri

Writer Vikram Bhatt, Rohit Malhotra (dialogue)

Actors Nikhil Dwivedi, Gulshan Devaiah, Paoli Dam, Mohan Kapoor

Plot After a powerful businessman has her baby forcefully aborted, Kaavya Krishna uses her body as a sexual weapon to destroy his empire, brick by brick.

Link http://www.imdb.com/title/tt2309987

Last Updated 19-11-2018 13:32:49
5.3

Votes 3,030

Main Technical Comments

Hate Story 2012 Hindi 720p WEB-DL X264 AAC { TaRa }.mkv


===================================================================
General
Complete name               : Hate Story 2012 Hindi 720p WEB-DL X264 AAC { TaRa }.mkv
Format                      : Matroska
Format version              : Version 4
File size                   : 958 MiB
Duration                    : 1 h 59 min
Overall bit rate            : 1 119 kb/s
===================================================================
Video
ID                          : 1
Format                      : AVC
Format/Info                 : Advanced Video Codec
Format profile              : [email protected]
Format settings             : CABAC / 4 Ref Frames
Format settings, CABAC      : Yes
Format settings, ReFrames   : 4 frames
Codec ID                    : V_MPEG4/ISO/AVC
Duration                    : 1 h 59 min
Bit rate                    : 1 000 kb/s
Width                       : 1 280 pixels
Height                      : 544 pixels
Display aspect ratio        : 2.35:1
Frame rate mode             : Constant
Frame rate                  : 25.000 FPS
Color space                 : YUV
Chroma subsampling          : 4:2:0
Bit depth                   : 8 bits
Scan type                   : Progressive
Bits/(Pixel*Frame)          : 0.057
Stream size                 : 846 MiB (88%)
Title                       : .....::::: TaRa :::::.....
Language                    : Hindi
Default                     : Yes
Forced                      : No
===================================================================
Audio
ID                          : 2
Format                      : AAC LC
Format/Info                 : Advanced Audio Codec Low Complexity
Codec ID                    : A_AAC-2
Duration                    : 1 h 59 min
Bit rate                    : 128 kb/s
Channel(s)                  : 2 channels
Channel layout              : L R
Sampling rate               : 48.0 kHz
Frame rate                  : 46.875 FPS (1024 SPF)
Compression mode            : Lossy
Stream size                 : 110 MiB (11%)
Title                       : .....::::: TaRa :::::.....
Language                    : Hindi
Default                     : Yes
Forced                      : No
===================================================================
































........................................................................


Loading...


Trackers:
udp://tracker.coppersurfer.tk:6969/announce

Hate Story 2012 Hindi 720p WEB-DL X264 AAC { TaRa }.mkv
Files
Hate Story 2012 Hindi 720p WEB-DL X264 AAC { TaRa }.mkv958.12 MB
Hate-Story-Movie-Poster-570x350.jpg64.99 kB
paoli-dam-hate-story.jpg136.18 kB
Torrent TaRa Digital Team PC Info.nfo6.53 kB
Torrent TaRa Digital Team.txt639.00 B


Similar Torrents
Type Name Size Added S L
Non-English Hate Story 4 2018 Hindi 1080p WEB-DL x264 ESub [MW...
1.67 GB 2018-05-12 15:11:38 710 229
Non-English Hate Story 4 2018 Hindi 720p WEB-DL AAC 2.0 x264 E...
903.87 MB 2018-05-11 17:06:44 298 222
Non-English Hate Story 4 (2018) 720p Hindi HDRip x264 ACC ESub...
1.36 GB 2018-05-11 08:15:39 291 60
HD Hate Story 4 2018 Hindi 720p HDRip x264 AAC { TaRa...
1.16 GB 2018-05-24 17:37:43 182 37
h.264/x264 Hate Story 4 (2018) Hindi 720p WEB-HD x264 AAC 5.1...
1.53 GB 2018-10-17 16:03:10 142 113
h.264/x264 Hate Story 4 (2018) Hindi HDRip x264 ACC by Full4m...
695.35 MB 2018-05-11 10:09:18 97 52

Comments:
No comments still posted
Loading...
Powered by TT | Page Generated In 0.639011 secs.
| RSS Feed | Feed Info