[Login] or [Signup]

First Cams

Xvid/x264



Non-English

Loading...

Crazy Rich Asians 2018 1080p WEB-DL DD 5.1 x264 [MW]


Complete Name :Crazy Rich Asians 2018 1080p WEB-DL DD 5.1 x264 [MW]
Download torrent:    Crazy Rich Asians 2018 1080p WEB-DL DD 5.1 x264 [MW].torrent
Info Hash:dcf3f0a7ce4da7808d840de9ed1d38c27cbe05bc
Category:Movies  > HD
Torrent language:English  
Seeds | Leech:525 | 218
Complete: 2,830
Health:
Total Size:2.41 GB
Downloaded:14 Times
Added By:      MovieFreak
Date Added:07-11-2018 04:06:pm | Last Edit:  08-11-2018 06:03:pm

 

Main Technical Comments




General
Format                                   : Matroska
Format version                           : Version 4 / Version 2
File size                                : 2.41 GiB
Duration                                 : 2 h 0 min
Overall bit rate                         : 2 861 kb/s

Video
ID                                       : 1
Format                                   : AVC
Format/Info                              : Advanced Video Codec
Format profile                           : [email protected]
Format settings                          : CABAC / 4 Ref Frames
Format settings, CABAC                   : Yes
Format settings, RefFrames               : 4 frames
Codec ID                                 : V_MPEG4/ISO/AVC
Duration                                 : 2 h 0 min
Bit rate                                 : 2 500 kb/s
Width                                    : 1 920 pixels
Height                                   : 800 pixels
Display aspect ratio                     : 2.40:1
Frame rate mode                          : Constant
Frame rate                               : 23.976 (24000/1001) FPS
Color space                              : YUV
Chroma subsampling                       : 4:2:0
Bit depth                                : 8 bits
Scan type                                : Progressive
Bits/(Pixel*Frame)                       : 0.068
Stream size                              : 2.08 GiB (87%)
Writing library                          : x264 core 155 r2901 7d0ff22
Default                                  : Yes
Forced                                   : No

Audio
ID                                       : 3
Format                                   : AC-3
Format/Info                              : Audio Coding 3
Codec ID                                 : A_AC3
Duration                                 : 2 h 0 min
Bit rate mode                            : Constant
Bit rate                                 : 384 kb/s
Channel(s)                               : 6 channels
Channel positions                        : Front: L C R, Side: L R, LFE
Sampling rate                            : 48.0 kHz
Frame rate                               : 31.250 FPS (1536 SPF)
Bit depth                                : 16 bits
Compression mode                         : Lossy
Stream size                              : 331 MiB (13%)
Language                                 : English
Service kind                             : Complete Main
Default                                  : Yes
Forced                                   : No

Text
ID                                       : 2
Format                                   : UTF-8
Codec ID                                 : S_TEXT/UTF8
Codec ID/Info                            : UTF-8 Plain Text
Duration                                 : 1 h 55 min
Bit rate                                 : 124 b/s
Count of elements                        : 2070
Stream size                              : 106 KiB (0%)
Language                                 : English
Default                                  : Yes
Forced                                   : No


https://pichub.site/image/VhZpQ
https://pichub.site/image/Vh3tk
https://pichub.site/image/Vh1ev
https://pichub.site/image/VhFHu
https://pichub.site/image/VhHkd
https://pichub.site/image/VhTv9

........................................................................


Loading...


Trackers:
udp://tracker.coppersurfer.tk:6969/announce

Crazy Rich Asians 2018 1080p WEB-DL DD 5.1 x264 [MW]
Files
Crazy Rich Asians 2018 1080p WEB-DL DD 5.1 x264 [MW].mkv2.41 GB


Similar Torrents
Type Name Size Added S L
Cam/TS Crazy Rich Asians 2018 ENG CAM-1XBET
1.78 GB 2018-08-19 14:22:16 4443 1319
HD Crazy.Rich.Asians.2018.1080p.WEB-DL.DD5.1.H264-CMR...
4.13 GB 2018-11-06 08:14:28 3872 1945
h.264/x264 Crazy.Rich.Asians.2018.HDRip.AC3.X264-CMRG[EtMovie...
1.33 GB 2018-11-06 08:05:04 3409 850
Cam/TS Crazy Rich Asians 2018 NEW 720p TS-1XBET
2.47 GB 2018-09-17 08:21:13 2757 1232
Divx/Xvid Crazy.Rich.Asians.2018.HDRip.XviD.AC3-EVO
1.38 GB 2018-11-06 09:09:28 2679 1225
HD 摘金奇缘.Crazy.Rich.Asians.2018.HD1080P.X264.A...
2.36 GB 2018-11-06 17:07:24 1366 682
Cam/TS Crazy Rich Asians 2018 Movies HD Cam x264 Clean Au...
705.07 MB 2018-08-19 03:24:28 1147 380
Cam/TS Crazy.Rich.Asians.2018.CAM.XViD.AC3-ETRG
1.29 GB 2018-08-19 19:11:52 1032 463
Cam/TS Crazy Rich Asians 2018 720p HDTS x264 [MW]
1.18 GB 2018-09-18 14:13:46 792 307
Cam/TS Crazy Rich Asians 2018 HDCAM ITALIAN-1XBET
1.79 GB 2018-08-18 11:05:51 591 378

Comments:
No comments still posted
Loading...
Powered by TT | Page Generated In 0.045406 secs.
| RSS Feed | Feed Info