[Login] or [Signup]

First Cams

Xvid/x264



Non-English

Loading...

Paltan 2018 x264 720p HD Hindi GOPISAHI


Complete Name :Paltan 2018 x264 720p HD Hindi GOPISAHI
Download torrent:    Paltan 2018 x264 720p HD Hindi GOPISAHI.torrent
Info Hash:a3bc7c13fc309460a231a5eeb6f7438be3bc2216
Category:Movies  > HD
Torrent language:Hindi  
Seeds | Leech:308 | 203
Complete: 1,633
Health:
Total Size:735.37 MB
Downloaded:12 Times
Added By:      GOPISAHI
Date Added:07-11-2018 11:53:am | Last Edit:  08-11-2018 02:47:pm

 

IMDB
Battalion
Battalion Released 07 Sep 2018

Genre Action, Drama, History, War

Director J.P. Dutta

Writer Nagender Choudhary (additional dialogue)

Actors Jackie Shroff, Arjun Rampal, Sonu Sood, Gurmeet Choudhary

Plot Film based on 1962 India-China war known as Indo-Sino war.

Link http://www.imdb.com/title/tt7162758

Last Updated 19-11-2018 13:39:44
6.0

Votes 337

Main Technical Comments
https://www.gopisahi.pw/

Format                         : Matroska
Format version                 : Version 4 / Version 2
File size                      : 735 MiB
Duration                       : 2 h 27 min
Overall bit rate               : 696 kb/s
Movie name                     : Paltan 2018 GOPISAHI

Video
Format                         : AVC
Format/Info                    : Advanced Video Codec
Codec ID                       : V_MPEG4/ISO/AVC
Duration                       : 2 h 27 min
Bit rate                       : 599 kb/s
Width                          : 1 280 pixels
Height                         : 544 pixels
Display aspect ratio           : 2.35:1
Frame rate mode                : Constant
Frame rate                     : 25.000 FPS
Color space                    : YUV
Chroma subsampling             : 4:2:0
Bit depth                      : 8 bits
Scan type                      : Progressive
Bits/(Pixel*Frame)             : 0.034
Stream size                    : 632 MiB (86%)
Title                          : GOPISAHI
Writing library                : x264 core 155 r2901 7d0ff22

Audio
Format                         : AAC
Duration                       : 2 h 27 min
Bit rate                       : 96.0 kb/s
Channel(s)                     : 2 channels
Channel positions              : Front: L R
Sampling rate                  : 48.0 kHz
Frame rate                     : 46.875 FPS (1024 SPF)
Compression mode               : Lossy
Delay relative to video        : -21 ms
Stream size                    : 101 MiB (14%)
Title                          : GOPISAHI
Language                       : Hindi


........................................................................


Loading...


Trackers:
udp://tracker.coppersurfer.tk:6969/announce

Paltan 2018 x264 720p HD Hindi GOPISAHI
Files
Paltan 2018 x264 720p HD Esub Hindi GOPISAHI.mkv735.37 MB


Similar Torrents
Type Name Size Added S L
Cam/TS Paltan 2018 Hindi Movies PDVDRip x264 Clean Audio ...
705.65 MB 2018-09-08 09:22:33 552 555
Non-English Paltan 2018 WebRip Hindi 720p x264 AAC - mkvCinema...
1.19 GB 2018-11-07 09:53:48 476 362
Non-English Paltan.2018.Hindi.720p.HDRip.x264.AC3.-.Hon3yHD
3.00 GB 2018-11-09 21:50:19 456 189
Non-English Paltan 2018 PreDvdRip Hindi 720p X264 AAC - mkvCin...
1.18 GB 2018-09-08 06:37:37 299 185
Non-English Paltan 2018 Hindi 720p WEBRip x264 [MW]
1.14 GB 2018-11-11 13:03:16 251 191
Non-English Paltan 2018 Hindi 1080p WEBRip x264 [MW]
2.16 GB 2018-11-11 13:06:49 201 215
Cam/TS Paltan 2018 Hindi PRE-H264-AC3 5.1-Zi$t
1.32 GB 2018-09-08 06:59:47 99 50

Comments:
No comments still posted
Loading...
Powered by TT | Page Generated In 0.640975 secs.
| RSS Feed | Feed Info