[Login] or [Signup]

First Cams

Xvid/x264



Non-English

Loading...

Mission Impossible Fallout 2018 720p WEB-DL x264 ESub [MW]


Complete Name :Mission Impossible Fallout 2018 720p WEB-DL x264 ESub [MW]
Download torrent:    Mission Impossible Fallout 2018 720p WEB-DL x264 ESub [MW].torrent
Info Hash:2c2b0315097c5c1141a6585ee76708eba44e0b6d
Category:Movies  > HD
Torrent language:English  
Seeds | Leech:319 | 54
Complete: 2,710
Health:
Total Size:1.20 GB
Downloaded:10 Times
Added By:      MovieFreak
Date Added:07-11-2018 10:26:am | Last Edit:  08-11-2018 01:44:pm

 
IMDB
Mission: Impossible - Fallout
Mission: Impossible - Fallout Released 27 Jul 2018

Genre Action, Adventure, Thriller

Director Christopher McQuarrie

Writer Christopher McQuarrie, Bruce Geller (based on the television series created by)

Actors Tom Cruise, Henry Cavill, Ving Rhames, Simon Pegg

Plot Ethan Hunt and his IMF team, along with some familiar allies, race against time after a mission gone wrong.

Link http://www.imdb.com/title/tt4912910

Last Updated 12-11-2018 20:46:07
8.0

Votes 147,340

Main Technical Comments




General
Format                                   : Matroska
Format version                           : Version 4 / Version 2
File size                                : 1.20 GiB
Duration                                 : 2 h 27 min
Overall bit rate                         : 1 166 kb/s

Video
ID                                       : 1
Format                                   : AVC
Format/Info                              : Advanced Video Codec
Format profile                           : [email protected]
Format settings                          : CABAC / 4 Ref Frames
Format settings, CABAC                   : Yes
Format settings, RefFrames               : 4 frames
Codec ID                                 : V_MPEG4/ISO/AVC
Duration                                 : 2 h 27 min
Bit rate                                 : 1 100 kb/s
Width                                    : 1 280 pixels
Height                                   : 536 pixels
Display aspect ratio                     : 2.40:1
Frame rate mode                          : Constant
Frame rate                               : 23.976 (24000/1001) FPS
Color space                              : YUV
Chroma subsampling                       : 4:2:0
Bit depth                                : 8 bits
Scan type                                : Progressive
Bits/(Pixel*Frame)                       : 0.067
Stream size                              : 1.10 GiB (92%)
Writing library                          : x264 core 155 r2901 7d0ff22
Default                                  : Yes
Forced                                   : No

Audio
ID                                       : 2
Format                                   : AAC
Format/Info                              : Advanced Audio Codec
Format profile                           : LC
Codec ID                                 : A_AAC-2
Duration                                 : 2 h 27 min
Bit rate                                 : 96.0 kb/s
Channel(s)                               : 2 channels
Channel positions                        : Front: L R
Sampling rate                            : 48.0 kHz
Frame rate                               : 46.875 FPS (1024 SPF)
Compression mode                         : Lossy
Stream size                              : 102 MiB (8%)
Language                                 : English
Default                                  : Yes
Forced                                   : No

Text
ID                                       : 3
Format                                   : UTF-8
Codec ID                                 : S_TEXT/UTF8
Codec ID/Info                            : UTF-8 Plain Text
Duration                                 : 2 h 19 min
Bit rate                                 : 92 b/s
Count of elements                        : 1856
Stream size                              : 94.8 KiB (0%)
Language                                 : English
Default                                  : Yes
Forced                                   : No


https://pichub.site/image/VCjoI
https://pichub.site/image/VCbfZ
https://pichub.site/image/VCehg
https://pichub.site/image/VCqWX
https://pichub.site/image/VhJUJ
https://pichub.site/image/VhfV8

........................................................................


Loading...


Trackers:
udp://tracker.coppersurfer.tk:6969/announce

Mission Impossible Fallout 2018 720p WEB-DL x264 ESub [MW]
Files
Mission Impossible Fallout 2018 720p WEB-DL x264 ESub [MW].mkv1.20 GB


Similar Torrents
Type Name Size Added S L
h.264/x264 Mission.Impossible.Fallout.2018.HC.HDRip.XviD.AC3-...
1.51 GB 2018-09-13 02:33:52 28377 20422
Cam/TS Mission Impossible Fallout 2018 720p HDCAM AC3-1XB...
2.43 GB 2018-07-26 16:34:09 22367 9690
Cam/TS Mission Impossible Fallout 2018.HDCAM.XViD.AC3-ETR...
1.43 GB 2018-07-26 22:57:27 4194 2028
HD Mission.Impossible.Fallout.2018.1080p.WEB-DL.DD5.1...
5.68 GB 2018-11-06 17:00:13 4178 1410
Divx/Xvid Mission.Impossible.Fallout.2018.HC.HDRip.XViD.AC3-...
1.50 GB 2018-09-13 13:42:39 3323 1477
Video AssholeFever 18 10 06 Tina Kay And Veronica Leal A...
225.55 MB 2018-10-06 07:47:52 3049 542
HD Mission Impossible Fallout 2018 1080p WEB-DL DD 5....
2.90 GB 2018-11-07 16:06:58 2228 676
Cam/TS Mission Impossible Fallout 2018 NEW 720p HDCAM X26...
2.46 GB 2018-07-28 20:40:39 2073 755
HD Mission.Impossible.Fallout.2018.720p.HC.HDRip.X264...
3.15 GB 2018-09-13 05:42:05 1868 868
Divx/Xvid Mission.Impossible.Fallout.2018.HDRip.XviD.AC3-EVO
1.57 GB 2018-11-06 17:15:41 1858 772

Comments:
No comments still posted
Loading...
Powered by TT | Page Generated In 0.641700 secs.
| RSS Feed | Feed Info