[Login] or [Signup]

First Cams

Xvid/x264



Non-English

Loading...

Crazy Rich Asians 2018 720pp WEB-DL x264 ESub [MW]


Complete Name :Crazy Rich Asians 2018 720pp WEB-DL x264 ESub [MW]
Download torrent:    Crazy Rich Asians 2018 720pp WEB-DL x264 ESub [MW].torrent
Info Hash:c5f68ddbac580d66cabaecaa3c9a3159249d3615
Category:Movies  > HD
Torrent language:English  
Seeds | Leech:348 | 110
Complete: 3,116
Health:
Total Size:1.17 GB
Downloaded:12 Times
Added By:      MovieFreak
Date Added:07-11-2018 10:24:am | Last Edit:  08-11-2018 01:44:pm

 

IMDB
Crazy Rich Asians
Crazy Rich Asians Released 15 Aug 2018

Genre Comedy, Romance

Director Jon M. Chu

Writer Peter Chiarelli (screenplay by), Adele Lim (screenplay by), Kevin Kwan (based on the novel "Crazy Rich Asians" by)

Actors Constance Wu, Henry Golding, Michelle Yeoh, Gemma Chan

Plot This contemporary romantic comedy, based on a global bestseller, follows native New Yorker Rachel Chu to Singapore to meet her boyfriend's family.

Link http://www.imdb.com/title/tt3104988

Last Updated 19-11-2018 14:17:43
7.5

Votes 32,539

Main Technical Comments




General
Format                                   : Matroska
Format version                           : Version 4 / Version 2
File size                                : 1.17 GiB
Duration                                 : 2 h 0 min
Overall bit rate                         : 1 386 kb/s

Video
ID                                       : 1
Format                                   : AVC
Format/Info                              : Advanced Video Codec
Format profile                           : [email protected]
Format settings                          : CABAC / 4 Ref Frames
Format settings, CABAC                   : Yes
Format settings, RefFrames               : 4 frames
Codec ID                                 : V_MPEG4/ISO/AVC
Duration                                 : 2 h 0 min
Bit rate                                 : 1 200 kb/s
Width                                    : 1 280 pixels
Height                                   : 532 pixels
Display aspect ratio                     : 2.40:1
Frame rate mode                          : Constant
Frame rate                               : 23.976 (24000/1001) FPS
Color space                              : YUV
Chroma subsampling                       : 4:2:0
Bit depth                                : 8 bits
Scan type                                : Progressive
Bits/(Pixel*Frame)                       : 0.073
Stream size                              : 1.00 GiB (86%)
Writing library                          : x264 core 155 r2901 7d0ff22
Default                                  : Yes
Forced                                   : No

Audio
ID                                       : 2
Format                                   : AAC
Format/Info                              : Advanced Audio Codec
Format profile                           : LC
Codec ID                                 : A_AAC-2
Duration                                 : 2 h 0 min
Bit rate                                 : 192 kb/s
Channel(s)                               : 6 channels
Channel positions                        : Front: L C R, Side: C, Back: L R
Sampling rate                            : 48.0 kHz
Frame rate                               : 46.875 FPS (1024 SPF)
Compression mode                         : Lossy
Stream size                              : 166 MiB (14%)
Language                                 : English
Default                                  : Yes
Forced                                   : No

Text
ID                                       : 3
Format                                   : UTF-8
Codec ID                                 : S_TEXT/UTF8
Codec ID/Info                            : UTF-8 Plain Text
Duration                                 : 1 h 55 min
Bit rate                                 : 124 b/s
Count of elements                        : 2070
Stream size                              : 106 KiB (0%)
Language                                 : English
Default                                  : Yes
Forced                                   : No


https://pichub.site/image/VC1N0
https://pichub.site/image/VCZ7b
https://pichub.site/image/VC91V
https://pichub.site/image/VCTOT
https://pichub.site/image/VCFBN
https://pichub.site/image/VCQPD

........................................................................


Loading...


Trackers:
udp://tracker.coppersurfer.tk:6969/announce

Crazy Rich Asians 2018 720pp WEB-DL x264 ESub [MW]
Files
Crazy Rich Asians 2018 720pp WEB-DL x264 ESub [MW].mkv1.17 GB


Similar Torrents
Type Name Size Added S L
Cam/TS Crazy Rich Asians 2018 ENG CAM-1XBET
1.78 GB 2018-08-19 14:22:16 4443 1319
HD Crazy.Rich.Asians.2018.1080p.WEB-DL.DD5.1.H264-CMR...
4.13 GB 2018-11-06 08:14:28 3872 1945
h.264/x264 Crazy.Rich.Asians.2018.HDRip.AC3.X264-CMRG[EtMovie...
1.33 GB 2018-11-06 08:05:04 3409 850
Cam/TS Crazy Rich Asians 2018 NEW 720p TS-1XBET
2.47 GB 2018-09-17 08:21:13 2757 1232
Divx/Xvid Crazy.Rich.Asians.2018.HDRip.XviD.AC3-EVO
1.38 GB 2018-11-06 09:09:28 2679 1225
HD 摘金奇缘.Crazy.Rich.Asians.2018.HD1080P.X264.A...
2.36 GB 2018-11-06 17:07:24 1366 682
Cam/TS Crazy Rich Asians 2018 Movies HD Cam x264 Clean Au...
705.07 MB 2018-08-19 03:24:28 1147 380
Cam/TS Crazy.Rich.Asians.2018.CAM.XViD.AC3-ETRG
1.29 GB 2018-08-19 19:11:52 1032 463
Cam/TS Crazy Rich Asians 2018 720p HDTS x264 [MW]
1.18 GB 2018-09-18 14:13:46 792 307
Cam/TS Crazy Rich Asians 2018 HDCAM ITALIAN-1XBET
1.79 GB 2018-08-18 11:05:51 591 378

Comments:
No comments still posted
Loading...
Powered by TT | Page Generated In 0.619739 secs.
| RSS Feed | Feed Info