[Login] or [Signup]

First Cams

Xvid/x264



Non-English

Loading...

Kin 2018 720p WEB-DL x264 [MW]


Complete Name :Kin 2018 720p WEB-DL x264 [MW]
Download torrent:    Kin 2018 720p WEB-DL x264 [MW].torrent
Info Hash:aeb8cd612c4ad6f83c2a50da0c244e3630519111
Category:Movies  > HD
Torrent language:English  
Seeds | Leech:159 | 57
Complete: 2,294
Health:
Total Size:824.08 MB
Downloaded:10 Times
Added By:      MovieFreak
Date Added:07-11-2018 08:46:am | Last Edit:  08-11-2018 11:39:am

 

IMDB
Kin
Kin Released 31 Aug 2018

Genre Action, Sci-Fi

Director Jonathan Baker, Josh Baker

Writer Jonathan Baker (based on the short film "Bag Man" by), Josh Baker (based on the short film "Bag Man" by), Daniel Casey (screenplay by)

Actors Myles Truitt, Jack Reynor, Dennis Quaid, Zoë Kravitz

Plot Chased by a vengeful criminal, the feds and a gang of otherworldly soldiers, a recently released ex-con, and his adopted teenage brother are forced to go on the run with a weapon of mysterious origin as their only protection.

Link http://www.imdb.com/title/tt6017942

Last Updated 19-11-2018 14:24:47
5.6

Votes 1,777

Main Technical Comments




General
Format                                   : Matroska
Format version                           : Version 4 / Version 2
File size                                : 824 MiB
Duration                                 : 1 h 42 min
Overall bit rate                         : 1 122 kb/s

Video
ID                                       : 1
Format                                   : AVC
Format/Info                              : Advanced Video Codec
Format profile                           : [email protected]
Format settings                          : CABAC / 4 Ref Frames
Format settings, CABAC                   : Yes
Format settings, RefFrames               : 4 frames
Codec ID                                 : V_MPEG4/ISO/AVC
Duration                                 : 1 h 42 min
Bit rate                                 : 1 000 kb/s
Width                                    : 1 280 pixels
Height                                   : 532 pixels
Display aspect ratio                     : 2.40:1
Frame rate mode                          : Constant
Frame rate                               : 23.976 (24000/1001) FPS
Color space                              : YUV
Chroma subsampling                       : 4:2:0
Bit depth                                : 8 bits
Scan type                                : Progressive
Bits/(Pixel*Frame)                       : 0.061
Stream size                              : 728 MiB (88%)
Writing library                          : x264 core 155 r2901 7d0ff22
Default                                  : Yes
Forced                                   : No

Audio
ID                                       : 2
Format                                   : AAC
Format/Info                              : Advanced Audio Codec
Format profile                           : LC
Codec ID                                 : A_AAC-2
Duration                                 : 1 h 42 min
Bit rate                                 : 128 kb/s
Channel(s)                               : 2 channels
Channel positions                        : Front: L R
Sampling rate                            : 48.0 kHz
Frame rate                               : 46.875 FPS (1024 SPF)
Compression mode                         : Lossy
Stream size                              : 94.1 MiB (11%)
Language                                 : English
Default                                  : Yes
Forced                                   : No


https://pichub.site/image/VCN4Q
https://pichub.site/image/VCxQ9
https://pichub.site/image/VCvrd
https://pichub.site/image/VCL7u
https://pichub.site/image/VCoZs
https://pichub.site/image/VCrNR

........................................................................


Loading...


Trackers:
udp://tracker.coppersurfer.tk:6969/announce

Kin 2018 720p WEB-DL x264 [MW]
Files
Kin 2018 720p WEB-DL x264 [MW].mkv824.08 MB


Similar Torrents
Type Name Size Added S L
Divx/Xvid Kin.2018.HDRip.XviD.AC3-EVO
1.34 GB 2018-11-06 08:35:20 4958 1404
Divx/Xvid Kin.2018.HDRip.XViD-ETRG
704.76 MB 2018-11-06 10:21:07 2014 967
Cam/TS Kin 2018 720p HDCAM X264-24HD
2.41 GB 2018-09-05 11:41:39 1215 305
HD Kin.2018.1080p.WEB-DL.H264.AC3-EVO[EtHD]
3.62 GB 2018-11-06 08:26:15 1160 447
Cam/TS Kin 2018.HDCAM.XViD.AC3-ETRG
1.18 GB 2018-09-08 11:44:35 505 298
h.264/x264 On.My.Skin.2018.NF.WEB-DL.DD5.1.H264-CMRG[EtMovies...
1.21 GB 2018-09-12 11:14:08 468 163
Cam/TS Kin 2018 720p HDCAM x264 AAC [MW]
1.10 GB 2018-09-06 21:10:19 300 114
HD Kin.2018.1080p.BluRay.x264-BLOW[EtHD]
7.74 GB 2018-11-10 05:58:45 285 351
Cam/TS Kin 2018 Movies HD Cam x264 Clean Audio AAC New So...
705.22 MB 2018-09-05 14:48:04 180 63
HD On.My.Skin.2018.1080p.NF.WEB-DL.DD+5.1.H264-CMRG[E...
3.40 GB 2018-09-12 11:22:56 163 41

Comments:
No comments still posted
Loading...
Powered by TT | Page Generated In 0.617629 secs.
| RSS Feed | Feed Info