[Login] or [Signup]


Warning! Use a VPN When Downloading Torrents!
Your IP Address is .   Location is
Your Internet Provider is tracking your torrent activity!  Hide your IP ADDRESS with a VPN!
We strongly recommend using Trust.Zone VPN to anonymize your torrenting. It's FREE!
Get VPN Now for FREE!
First Cams

Xvid/x264



Non-English

Loading...

Robin Hood The Rebellion 2018 1080p WEB-DL DD 5.1 x264 [MW]


Complete Name :Robin Hood The Rebellion 2018 1080p WEB-DL DD 5.1 x264 [MW]
Download torrent:    Robin Hood The Rebellion 2018 1080p WEB-DL DD 5.1 x264 [MW].torrent
Info Hash:9df2858b9886c1b50445660d292d9f4325004982
Category:Movies  > HD
Torrent language:English  
Seeds | Leech:190 | 27
Complete: 3,574
Health:
Total Size:1.75 GB
Downloaded:15 Times
Added By:      MovieFreak
Date Added:06-11-2018 11:38:pm | Last Edit:  27-01-2019 02:01:am

 

Main Technical Comments




General
Format                                   : Matroska
Format version                           : Version 4 / Version 2
File size                                : 1.75 GiB
Duration                                 : 1 h 32 min
Overall bit rate                         : 2 717 kb/s

Video
ID                                       : 1
Format                                   : AVC
Format/Info                              : Advanced Video Codec
Format profile                           : [email protected]
Format settings                          : CABAC / 4 Ref Frames
Format settings, CABAC                   : Yes
Format settings, RefFrames               : 4 frames
Codec ID                                 : V_MPEG4/ISO/AVC
Duration                                 : 1 h 32 min
Bit rate                                 : 2 400 kb/s
Width                                    : 1 920 pixels
Height                                   : 800 pixels
Display aspect ratio                     : 2.40:1
Frame rate mode                          : Constant
Frame rate                               : 23.976 (24000/1001) FPS
Color space                              : YUV
Chroma subsampling                       : 4:2:0
Bit depth                                : 8 bits
Scan type                                : Progressive
Bits/(Pixel*Frame)                       : 0.065
Stream size                              : 1.50 GiB (86%)
Writing library                          : x264 core 155 r2901 7d0ff22
Default                                  : Yes
Forced                                   : No

Audio
ID                                       : 2
Format                                   : AC-3
Format/Info                              : Audio Coding 3
Codec ID                                 : A_AC3
Duration                                 : 1 h 32 min
Bit rate mode                            : Constant
Bit rate                                 : 384 kb/s
Channel(s)                               : 6 channels
Channel positions                        : Front: L C R, Side: L R, LFE
Sampling rate                            : 48.0 kHz
Frame rate                               : 31.250 FPS (1536 SPF)
Bit depth                                : 16 bits
Compression mode                         : Lossy
Stream size                              : 253 MiB (14%)
Language                                 : English
Service kind                             : Complete Main
Default                                  : Yes
Forced                                   : No

Text
ID                                       : 3
Format                                   : UTF-8
Codec ID                                 : S_TEXT/UTF8
Codec ID/Info                            : UTF-8 Plain Text
Duration                                 : 1 h 30 min
Bit rate                                 : 44 b/s
Count of elements                        : 1186
Stream size                              : 29.5 KiB (0%)
Language                                 : English
Default                                  : Yes
Forced                                   : No


https://pichub.site/image/VybFu
https://pichub.site/image/VyW09
https://pichub.site/image/VyjdR
https://pichub.site/image/Vyqus
https://pichub.site/image/VC43B
https://pichub.site/image/VCJIY

........................................................................


Loading...


Trackers:
udp://tracker.coppersurfer.tk:6969/announce

Robin Hood The Rebellion 2018 1080p WEB-DL DD 5.1 x264 [MW]
Files
Robin Hood The Rebellion 2018 1080p WEB-DL DD 5.1 x264 [MW].mkv --- 1.75 GB


Similar Torrents
Type Name Size Added S L
Divx/Xvid Robin.Hood.2018.HC.HDRip.XviD.AC3-EVO
1.38 GB 2019-01-22 11:58:09 27657 9699
HD Robin Hood (2018) 720p HC HDRip x264 AAC - Downloa...
910.76 MB 2019-01-22 01:44:28 7634 2775
Cam/TS Robin Hood 2018.HDCAM.XViD.AC3-ETRG
1.20 GB 2018-11-25 13:55:16 4202 1677
h.264/x264 Robin.Hood.The.Rebellion.2018.HDRip.AC3.X264-CMRG[...
1.31 GB 2018-11-05 02:50:24 4139 1016
h.264/x264 Robin.Hood.The.Rebellion.2018.DVDRip.x264-ARiES[Et...
886.73 MB 2019-01-09 15:56:08 3323 1676
Divx/Xvid Robin Hood The Rebellion.HDRip.XviD.AC3-EVO
1.32 GB 2018-11-05 07:01:16 2483 542
h.264/x264 Robin Hood: Początek / Robin Hood [2018][PLSUBBED...
1.09 GB 2019-02-12 12:39:41 2052 592
h.264/x264 Robin Hood (2018) English HC HDRip 720p x264-AAC-9...
888.47 MB 2019-01-22 03:01:27 1815 438
Divx/Xvid Robin.Hood.2018.HDRip.XviD.AC3-EVO
1.29 GB 2019-02-05 10:05:40 1755 1521
Cam/TS Robin Hood (2018) English 720p HDCAM x264 Full Hol...
782.21 MB 2018-11-25 11:52:33 1712 286

Comments:
No comments still posted
Loading...
Powered by TT | Page Generated In 0.083482 secs.
| RSS Feed | Feed Info