[Login] or [Signup]

First Cams

Xvid/x264



Non-English

Loading...

Blindspotting 2018 720p WEB-DL x264 ESub [MW]


Complete Name :Blindspotting 2018 720p WEB-DL x264 ESub [MW]
Download torrent:    Blindspotting 2018 720p WEB-DL x264 ESub [MW].torrent
Info Hash:b1872058165bcc53af30be859d700b8a438181ae
Category:Movies  > HD
Torrent language:English  
Seeds | Leech:69 | 37
Complete: 1,181
Health:
Total Size:901.95 MB
Downloaded:10 Times
Added By:      MovieFreak
Date Added:06-11-2018 11:38:pm | Last Edit:  08-11-2018 08:22:am

 

IMDB
Blindspotting
Blindspotting Released 27 Jul 2018

Genre Comedy, Crime, Drama

Director Carlos López Estrada

Writer Rafael Casal, Daveed Diggs

Actors Daveed Diggs, Rafael Casal, Janina Gavankar, Jasmine Cephas Jones

Plot While on probation, a man begins to re-evaluate his relationship with his volatile best friend.

Link http://www.imdb.com/title/tt7242142

Last Updated 19-11-2018 13:43:57
7.4

Votes 5,278

Main Technical Comments




General
Format                                   : Matroska
Format version                           : Version 4 / Version 2
File size                                : 902 MiB
Duration                                 : 1 h 35 min
Overall bit rate                         : 1 322 kb/s

Video
ID                                       : 1
Format                                   : AVC
Format/Info                              : Advanced Video Codec
Format profile                           : [email protected]
Format settings                          : CABAC / 4 Ref Frames
Format settings, CABAC                   : Yes
Format settings, RefFrames               : 4 frames
Codec ID                                 : V_MPEG4/ISO/AVC
Duration                                 : 1 h 35 min
Bit rate                                 : 1 200 kb/s
Width                                    : 1 280 pixels
Height                                   : 688 pixels
Display aspect ratio                     : 1.85:1
Frame rate mode                          : Constant
Frame rate                               : 23.976 (24000/1001) FPS
Color space                              : YUV
Chroma subsampling                       : 4:2:0
Bit depth                                : 8 bits
Scan type                                : Progressive
Bits/(Pixel*Frame)                       : 0.057
Stream size                              : 824 MiB (91%)
Writing library                          : x264 core 155 r2901 7d0ff22
Default                                  : Yes
Forced                                   : No

Audio
ID                                       : 2
Format                                   : AAC
Format/Info                              : Advanced Audio Codec
Format profile                           : LC
Codec ID                                 : A_AAC-2
Duration                                 : 1 h 35 min
Bit rate                                 : 112 kb/s
Channel(s)                               : 2 channels
Channel positions                        : Front: L R
Sampling rate                            : 48.0 kHz
Frame rate                               : 46.875 FPS (1024 SPF)
Compression mode                         : Lossy
Stream size                              : 76.5 MiB (8%)
Language                                 : English
Default                                  : Yes
Forced                                   : No

Text
ID                                       : 3
Format                                   : UTF-8
Codec ID                                 : S_TEXT/UTF8
Codec ID/Info                            : UTF-8 Plain Text
Duration                                 : 1 h 32 min
Bit rate                                 : 84 b/s
Count of elements                        : 1627
Stream size                              : 57.2 KiB (0%)
Language                                 : English
Default                                  : Yes
Forced                                   : No


https://pichub.site/image/VC73T
https://pichub.site/image/VCdGV
https://pichub.site/image/VCcIN
https://pichub.site/image/VCkAD
https://pichub.site/image/VCC4g
https://pichub.site/image/VCwlZ

........................................................................


Loading...


Trackers:
udp://tracker.coppersurfer.tk:6969/announce

Blindspotting 2018 720p WEB-DL x264 ESub [MW]
Files
Blindspotting 2018 720p WEB-DL x264 ESub [MW].mkv901.95 MB


Similar Torrents
Type Name Size Added S L
x264 Blindspot.S03E17.HDTV.x264-KILLERS[ettv]
314.00 MB 2018-03-31 13:41:31 5623 2169
x264 Blindspot.S03E22.HDTV.x264-SVA[ettv]
283.93 MB 2018-05-19 03:06:44 5142 1328
x264 Blindspot.S03E19.WEBRip.x264-PBS[ettv]
295.15 MB 2018-04-28 17:38:46 4578 2006
x264 Blindspot.S04E05.HDTV.x264-SHiTSPREAD[ettv]
294.39 MB 2018-11-10 09:08:11 2670 322
x264 Blindspot.S04E03.HDTV.x264-KILLERS[ettv]
318.86 MB 2018-10-27 06:25:45 2630 663
x264 Blindspot.S04E02.HDTV.x264-SVA[ettv]
286.92 MB 2018-10-20 03:15:12 1955 356
h.264/x264 Blindspotting.2018.HDRip.READ.INFO.AC3.X264-CMRG
1.32 GB 2018-10-13 20:37:00 1888 414
x264 Blindspot.S04E01.HDTV.x264-KILLERS[ettv]
300.35 MB 2018-10-13 03:17:37 1626 768
HD Blindspot.S04E05.720p.HDTV.x264-TOPKEK[ettv]
1.03 GB 2018-11-10 08:47:48 1316 156
x264 Blindspot.S04E04.HDTV.x264-SVA[ettv]
305.88 MB 2018-11-03 03:24:04 1214 201

Comments:
No comments still posted
Loading...
Powered by TT | Page Generated In 0.222445 secs.
| RSS Feed | Feed Info