[Login] or [Signup]

First Cams

Xvid/x264



Non-English

Loading...

Krampus Origins 2018 720p WEB-DL x264 ESub [MW]


Complete Name :Krampus Origins 2018 720p WEB-DL x264 ESub [MW]
Download torrent:    Krampus Origins 2018 720p WEB-DL x264 ESub [MW].torrent
Info Hash:45a3fc41c991e04a992917020a93dcfd87435f68
Category:Movies  > HD
Torrent language:English  
Seeds | Leech:151 | 49
Complete: 1,679
Health:
Total Size:784.12 MB
Downloaded:10 Times
Added By:      MovieFreak
Date Added:06-11-2018 11:37:pm | Last Edit:  08-11-2018 08:22:am

 

Main Technical Comments




General
Format                                   : Matroska
Format version                           : Version 4 / Version 2
File size                                : 784 MiB
Duration                                 : 1 h 25 min
Overall bit rate                         : 1 281 kb/s

Video
ID                                       : 1
Format                                   : AVC
Format/Info                              : Advanced Video Codec
Format profile                           : [email protected]
Format settings                          : CABAC / 4 Ref Frames
Format settings, CABAC                   : Yes
Format settings, RefFrames               : 4 frames
Codec ID                                 : V_MPEG4/ISO/AVC
Duration                                 : 1 h 25 min
Bit rate                                 : 1 200 kb/s
Width                                    : 1 280 pixels
Height                                   : 532 pixels
Display aspect ratio                     : 2.40:1
Frame rate mode                          : Constant
Frame rate                               : 23.976 (24000/1001) FPS
Color space                              : YUV
Chroma subsampling                       : 4:2:0
Bit depth                                : 8 bits
Scan type                                : Progressive
Bits/(Pixel*Frame)                       : 0.073
Stream size                              : 724 MiB (92%)
Writing library                          : x264 core 155 r2901 7d0ff22
Default                                  : Yes
Forced                                   : No

Audio
ID                                       : 2
Format                                   : AAC
Format/Info                              : Advanced Audio Codec
Format profile                           : LC
Codec ID                                 : A_AAC-2
Duration                                 : 1 h 25 min
Bit rate                                 : 96.0 kb/s
Channel(s)                               : 2 channels
Channel positions                        : Front: L R
Sampling rate                            : 48.0 kHz
Frame rate                               : 46.875 FPS (1024 SPF)
Compression mode                         : Lossy
Stream size                              : 59.0 MiB (8%)
Language                                 : English
Default                                  : Yes
Forced                                   : No

Text
ID                                       : 3
Format                                   : UTF-8
Codec ID                                 : S_TEXT/UTF8
Codec ID/Info                            : UTF-8 Plain Text
Duration                                 : 1 h 21 min
Bit rate                                 : 50 b/s
Count of elements                        : 1226
Stream size                              : 29.7 KiB (0%)
Language                                 : English
Default                                  : Yes
Forced                                   : No


https://pichub.site/image/VCM86
https://pichub.site/image/VCOyp
https://pichub.site/image/VCI44
https://pichub.site/image/VCRLy
https://pichub.site/image/VCSFb
https://pichub.site/image/VCEd0

........................................................................


Loading...


Trackers:
udp://tracker.coppersurfer.tk:6969/announce

Krampus Origins 2018 720p WEB-DL x264 ESub [MW]
Files
Krampus Origins 2018 720p WEB-DL x264 ESub [MW].mkv784.12 MB


Similar Torrents
Type Name Size Added S L
Divx/Xvid Krampus.Origins.2018.HDRip.XviD.AC3-EVO
1.21 GB 2018-11-06 13:21:46 618 217
HD Krampus 2015 1080p BluRay x264 Dual Audio [Hindi D...
1.99 GB 2018-07-15 08:46:42 350 125
Dubs/Dual Audio Krampus (2015) 720p [Hindi Dubbed + English] (DD 5...
1.15 GB 2018-07-28 18:24:28 208 69
h.264/x264 Krampus.Origins.2018.HDRip.XviD.AC3-EVO[EtMovies]
1.21 GB 2018-11-06 13:15:42 70 5
HD Krampus.Origins.2018.1080p.AMZN.WEB-DL.DDP5.1.H.26...
2.81 GB 2018-11-06 13:47:15 67 21
HD Krampus - The Devil Returns (2016).Bluray.1080p.Ha...
9.52 GB 2018-05-20 15:32:23 28 49
Divx/Xvid Krampus.Origins.2018.HDRip.XviD.AC3.LLG
966.19 MB 2018-11-09 07:50:33 3 1
Divx/Xvid Krampus.Origins.2018.HDRip.XviD.AC3.Whit.Sample.LL...
965.60 MB 2018-11-10 08:34:21 3 3

Comments:
No comments still posted
Loading...
Powered by TT | Page Generated In 0.051653 secs.
| RSS Feed | Feed Info